Results 1 to 2 of 2

Thread: Mezzmo thinks .m4v file is a song

  1. #1
    Join Date
    Oct 2012
    Posts
    2

    Default Mezzmo thinks .m4v file is a song

    I am really interested in purchasing the Mezzmo software, but it thinks some .m4v files are songs and won't play them as videos. I transfered my iTunes account, and some .m4v files play as videos. What am I doing wrong? I wanna stream The Walking Dead!

    FFmpeg:
    ffmpeg version N-40693-gc457a29 Copyright (c) 2000-2012 the FFmpeg developers
    built on May 15 2012 12:57:14 with gcc 4.6.2
    configuration: --enable-memalign-hack --arch=x86 --target-os=mingw32 --cross-prefix=i686-w64-mingw32- --enable-static --disable-shared --enable-zlib --disable-postproc --prefix=/home/peter/ffmpeg/build/gpl --enable-libmp3lame --enable-libx264 --enable-gpl --extra-libs='-lx264 -lpthread' --enable-runtime-cpudetect --extra-cflags=-I/home/peter/cc/include --extra-ldflags=-L/home/peter/cc/lib --pkg-config=pkg-config --disable-w32threads
    libavutil 51. 51.100 / 51. 51.100
    libavcodec 54. 21.101 / 54. 21.101
    libavformat 54. 5.100 / 54. 5.100
    libavdevice 53. 4.100 / 53. 4.100
    libavfilter 2. 73.100 / 2. 73.100
    libswscale 2. 1.100 / 2. 1.100
    libswresample 0. 11.100 / 0. 11.100
    [mov,mp4,m4a,3gp,3g2,mj2 @ 016dc3c0] max_analyze_duration 5000000 reached at 5005005
    [mov,mp4,m4a,3gp,3g2,mj2 @ 016dc3c0] Could not find codec parameters (Video: none (drmi / 0x696D7264), 1280x720, 4067 kb/s)
    Input #0, mov,mp4,m4a,3gp,3g2,mj2, from 'C:\Users\Rob\Videos\vids\101 Inside The Walking Dead_ Cast On.m4v':
    Metadata:
    major_brand : M4V
    minor_version : 0
    compatible_brands: M4V mp42isom
    creation_time : 2012-09-20 00:12:09
    title : Inside The Walking Dead: Cast On the Set of Season 3
    artist : The Walking Dead
    album_artist : The Walking Dead
    album : The Walking Dead
    genre : Drama
    track : 101
    disc : 1/1
    gapless_playback: 0
    date : 2012-09-24T07:00:00Z
    copyright : 2012 AMC Film Holdings LLC
    hd_video : 1
    network : AMC
    show : The Walking Dead
    episode_id : 300
    season_number : 3
    episode_sort : 101
    media_type : 10
    Duration: 00:02:35.03, start: 0.000000, bitrate: 4282 kb/s
    Stream #0:0(eng): Audio: aac (drms / 0x736D7264), 48000 Hz, stereo, s16, 155 kb/s
    Metadata:
    creation_time : 2012-09-20 00:12:09
    handler_name : Apple Sound Media Handler
    Stream #0:1(eng): Video: none (drmi / 0x696D7264), 1280x720, 4067 kb/s, SAR 1:1 DAR 16:9, 23.98 fps, 23.98 tbr, 2997 tbn, 2997 tbc
    Metadata:
    creation_time : 2012-09-20 00:12:09
    handler_name : Apple Video Media Handler
    At least one output file must be specified


    ---> DB Level Info: -99, -99
    ---> Frame rate: 23.98
    ---> Aspect ratio: 16:9

  2. #2
    Join Date
    Nov 2007
    Location
    Melbourne, Australia
    Posts
    11,642

    Default

    Unfortunately, the video file you mention has digital rights management (DRM). You can see this in the FFmpeg output (look for 'drms' & 'drmi'). This means Mezzmo cannot get details inside the video and cannot transcode the video to compatible formats for your devices. Also, many DLNA devices may not be able to play it due to the DRM.

    Mezzmo Android: Install it on your tablet, smartphone, Android TV or Amazon Fire to browse and stream files from your Mezzmo library to all your devices. Full details at http://www.conceiva.com/products/mez...mo_android.asp
    Mezzmo for Kodi Add-on: Install it into Kodi to stream files from your Mezzmo library directly in Kodi. Full details at http://www.mezzmo.com/wiki/doku.php?...odi_user_guide
    Mezzmo for Roku App: Install it onto your Roku to stream files from your Mezzmo library. Full details at http://www.mezzmo.com/wiki/doku.php?...oku_user_guide
    Wiki: User Guides & Reference Manual at http://www.mezzmo.com/wiki
    Facebook: http://www.facebook.com/Mezzmo.DLNA.Server
    Twitter: https://twitter.com/conceiva_mezzmo
    Web: http://www.mezzmo.com

Similar Threads

  1. Replies: 7
    Last Post: 07-20-2012, 05:40 PM
  2. Song unexpectedly switches to new song
    By gliot1 in forum Mezzmo Questions and Support
    Replies: 2
    Last Post: 06-07-2011, 12:41 AM
  3. Song Lyrics
    By Silentdane in forum Mezzmo Questions and Support
    Replies: 5
    Last Post: 01-25-2011, 06:08 PM
  4. Slow song transition
    By BrianB in forum Mezzmo Questions and Support
    Replies: 7
    Last Post: 12-13-2010, 12:54 PM
  5. AVG thinks Sniffer is a virus!
    By cliffsloane in forum DownloadStudio Questions and Support
    Replies: 2
    Last Post: 05-01-2008, 02:36 PM

Tags for this Thread

Bookmarks

Posting Permissions

  • You may not post new threads
  • You may not post replies
  • You may not post attachments
  • You may not edit your posts
  •