Results 1 to 3 of 3

Thread: Problem with stuttering

  1. #1
    Join Date
    Oct 2012
    Location
    Surrey, UK
    Posts
    18

    Default Problem with stuttering

    Hi All,

    I fairly new to mezzmo and find it a great product.

    sadly though I have problems with stuttering when try to play video media with a high bitrate.

    I am streaming media to from my PC to my Sony BDP S470 Blu ray player.

    Mezzmo set up for Blu-ray Disc Player. Sony BDT,HT,SMP.

    I have included FFMpeg info hoping you can help

    ffmpeg version N-45739-g04bf2e7 Copyright (c) 2000-2012 the FFmpeg developers
    built on Oct 20 2012 00:16:49 with gcc 4.7.2 (GCC)
    configuration: --enable-gpl --enable-version3 --disable-pthreads --enable-runtime-cpudetect --enable-avisynth --enable-bzlib --enable-frei0r --enable-libass --enable-libopencore-amrnb --enable-libopencore-amrwb --enable-libfreetype --enable-libgsm --enable-libmp3lame --enable-libnut --enable-libopenjpeg --enable-libopus --enable-librtmp --enable-libschroedinger --enable-libspeex --enable-libtheora --enable-libutvideo --enable-libvo-aacenc --enable-libvo-amrwbenc --enable-libvorbis --enable-libvpx --enable-libx264 --enable-libxavs --enable-libxvid --enable-zlib
    libavutil 51. 76.100 / 51. 76.100
    libavcodec 54. 67.100 / 54. 67.100
    libavformat 54. 33.100 / 54. 33.100
    libavdevice 54. 3.100 / 54. 3.100
    libavfilter 3. 19.103 / 3. 19.103
    libswscale 2. 1.101 / 2. 1.101
    libswresample 0. 16.100 / 0. 16.100
    libpostproc 52. 1.100 / 52. 1.100
    [mov,mp4,m4a,3gp,3g2,mj2 @ 025db320] multiple edit list entries, a/v desync might occur, patch welcome
    Input #0, mov,mp4,m4a,3gp,3g2,mj2, from 'C:\Users\Michael\Videos\MeGUI\01. BBC HD - James May's Things You Need to___-muxed.mp4':
    Metadata:
    major_brand : isom
    minor_version : 1
    compatible_brands: isom
    creation_time : 2012-10-21 14:03:38
    Duration: 00:58:03.45, start: 0.000000, bitrate: 2831 kb/s
    Stream #0:0(und): Video: h264 (High) (avc1 / 0x31637661), yuv420p, 720x400 [SAR 1:1 DAR 9:5], 5467 kb/s, 25 fps, 25 tbr, 25 tbn, 50 tbc
    Metadata:
    creation_time : 2012-10-21 13:09:25
    handler_name : GPAC ISO Video Handler
    Stream #0:1(und): Audio: ac3 (ac-3 / 0x332D6361), 48000 Hz, stereo, s16, 192 kb/s
    Metadata:
    creation_time : 2012-10-21 14:06:50
    At least one output file must be specified


    ---> DB Level Info: 41, 100
    ---> Frame rate: 25.00
    ---> Aspect ratio: 9:5

    Hoping you can help.

    Regards Michael

  2. #2
    Join Date
    Nov 2007
    Location
    Melbourne, Australia
    Posts
    11,616

    Default

    This MP4 file is streamed directly to your Sony Blu-ray player when using the 'Sony BDP, HT, SMP' device profile.

    High bitrate files can stutter when streamed and played on your DLNA devices - typically for two reasons:

    • your home network may not cope with the high bandwidth required by these files. This is typically seen when streaming using wireless networks. If you are using wireless, please use wireless-N with full signal strength. As a test try an Ethernet cable and see if this confirms that your wireless was causing the stuttering.
    • your DLNA device's firmware may struggle to decode and play the high bitrate file and this often causes stuttering.

    You can try to pre-transcode the file to another format and see if that helps. Right-click on the file in Mezzmo and click 'Pre-transcode Files'.

    Let us know how you go.

    Mezzmo Android: Install it on your tablet, smartphone, Android TV or Amazon Fire to browse and stream files from your Mezzmo library to all your devices. Full details at http://www.conceiva.com/products/mez...mo_android.asp
    Mezzmo for Kodi Add-on: Install it into Kodi to stream files from your Mezzmo library directly in Kodi. Full details at http://www.mezzmo.com/wiki/doku.php?...odi_user_guide
    Mezzmo for Roku App: Install it onto your Roku to stream files from your Mezzmo library. Full details at http://www.mezzmo.com/wiki/doku.php?...oku_user_guide
    Wiki: User Guides & Reference Manual at http://www.mezzmo.com/wiki
    Facebook: http://www.facebook.com/Mezzmo.DLNA.Server
    Twitter: https://twitter.com/conceiva_mezzmo
    Web: http://www.mezzmo.com

  3. #3
    Join Date
    Oct 2012
    Location
    Surrey, UK
    Posts
    18

    Default

    Thanks for your reply.

    I have a Wireless N ADSL2+ Modem Router TD-W8960N, how ever its is connected to my desktop player by cable.

    Most of my files are from my Satellitte box and from BBC HD and are recoded my me.
    So does this meen that I need recode my media files to a lower bit-rate, if so what would you suggest?

    Regards Michael

Similar Threads

  1. Major stuttering with Mezzmo 2.7.1.0
    By Dazzler in forum Mezzmo Questions and Support
    Replies: 9
    Last Post: 10-26-2012, 10:34 AM
  2. 1080p stuttering
    By Justinf89 in forum Mezzmo Questions and Support
    Replies: 6
    Last Post: 10-10-2012, 02:36 PM
  3. Mezzmo and MKV audio stuttering
    By Baron3 in forum Mezzmo Questions and Support
    Replies: 1
    Last Post: 04-24-2012, 01:57 PM
  4. stuttering on Samsung UA32D5000PRMXL
    By sharadjjw in forum Mezzmo Questions and Support
    Replies: 23
    Last Post: 09-09-2011, 05:57 PM
  5. Video is stuttering
    By mavrik64 in forum Mezzmo Questions and Support
    Replies: 10
    Last Post: 05-12-2011, 04:23 AM

Tags for this Thread

Bookmarks

Posting Permissions

  • You may not post new threads
  • You may not post replies
  • You may not post attachments
  • You may not edit your posts
  •