Results 1 to 2 of 2

Thread: 2.7.1.0 stop and start on SOME files

  1. #1

    Default 2.7.1.0 stop and start on SOME files

    can't really call it stuttering... it completely stops for a second or 2, plays a second or 2, then stops again.. almost as if it is transcoding but not fast enough to keep the buffer full, so to speak..

    a file that stops:

    ffmpeg version N-40693-gc457a29 Copyright (c) 2000-2012 the FFmpeg developers
    built on May 15 2012 12:57:14 with gcc 4.6.2
    configuration: --enable-memalign-hack --arch=x86 --target-os=mingw32 --cross-prefix=i686-w64-mingw32- --enable-static --disable-shared --enable-zlib --disable-postproc --prefix=/home/peter/ffmpeg/build/gpl --enable-libmp3lame --enable-libx264 --enable-gpl --extra-libs='-lx264 -lpthread' --enable-runtime-cpudetect --extra-cflags=-I/home/peter/cc/include --extra-ldflags=-L/home/peter/cc/lib --pkg-config=pkg-config --disable-w32threads
    libavutil 51. 51.100 / 51. 51.100
    libavcodec 54. 21.101 / 54. 21.101
    libavformat 54. 5.100 / 54. 5.100
    libavdevice 53. 4.100 / 53. 4.100
    libavfilter 2. 73.100 / 2. 73.100
    libswscale 2. 1.100 / 2. 1.100
    libswresample 0. 11.100 / 0. 11.100
    Input #0, mov,mp4,m4a,3gp,3g2,mj2, from 'I:\TV\A-new stuff\survivor.s25e06.hdtv.x264-2hd.mp4':
    Metadata:
    major_brand : isom
    minor_version : 1
    compatible_brands: isom
    creation_time : 2012-10-25 01:01:52
    Duration: 00:42:18.43, start: 0.000000, bitrate: 1392 kb/s
    Stream #0:0(und): Video: h264 (High) (avc1 / 0x31637661), yuv420p, 720x404, 1257 kb/s, 29.97 fps, 29.97 tbr, 30k tbn, 59.94 tbc
    Metadata:
    creation_time : 2012-10-25 00:26:31
    Stream #0:1(und): Audio: aac (mp4a / 0x6134706D), 48000 Hz, stereo, s16, 130 kb/s
    Metadata:
    creation_time : 2012-10-25 01:01:53
    At least one output file must be specified


    ---> DB Level Info: 31, 100
    ---> Frame rate: 29.97
    ---> Aspect ratio:

    and one that plays fine

    ffmpeg version N-40693-gc457a29 Copyright (c) 2000-2012 the FFmpeg developers
    built on May 15 2012 12:57:14 with gcc 4.6.2
    configuration: --enable-memalign-hack --arch=x86 --target-os=mingw32 --cross-prefix=i686-w64-mingw32- --enable-static --disable-shared --enable-zlib --disable-postproc --prefix=/home/peter/ffmpeg/build/gpl --enable-libmp3lame --enable-libx264 --enable-gpl --extra-libs='-lx264 -lpthread' --enable-runtime-cpudetect --extra-cflags=-I/home/peter/cc/include --extra-ldflags=-L/home/peter/cc/lib --pkg-config=pkg-config --disable-w32threads
    libavutil 51. 51.100 / 51. 51.100
    libavcodec 54. 21.101 / 54. 21.101
    libavformat 54. 5.100 / 54. 5.100
    libavdevice 53. 4.100 / 53. 4.100
    libavfilter 2. 73.100 / 2. 73.100
    libswscale 2. 1.100 / 2. 1.100
    libswresample 0. 11.100 / 0. 11.100
    Input #0, mov,mp4,m4a,3gp,3g2,mj2, from 'I:\TV\dexter\season 7\Dexter.S07E04.HDTV.x264-ASAP.mp4':
    Metadata:
    major_brand : isom
    minor_version : 1
    compatible_brands: isom
    creation_time : 2011-09-08 11:43:25
    Duration: 00:53:53.10, start: 0.000000, bitrate: 883 kb/s
    Stream #0:0(und): Video: h264 (High) (avc1 / 0x31637661), yuv420p, 720x402 [SAR 1:1 DAR 120:67], 745 kb/s, 23.98 fps, 23.98 tbr, 24k tbn, 47.95 tbc
    Metadata:
    creation_time : 2011-09-08 11:43:25
    Stream #0:1(und): Audio: aac (mp4a / 0x6134706D), 48000 Hz, stereo, s16, 131 kb/s
    Metadata:
    creation_time : 2011-09-08 11:43:25
    At least one output file must be specified


    ---> DB Level Info: 31, 100
    ---> Frame rate: 23.98
    ---> Aspect ratio: 120:67

    both being streamed through wireless to an xbox 360

  2. #2
    Join Date
    Nov 2007
    Location
    Melbourne, Australia
    Posts
    11,616

    Default

    In Mezzmo, check the Transcoding pane when you are streaming these files. If you see them listed as transcoding and they are marked in red, then that tells you your PC is unable to transcode them fast enough for realtime streaming. The workaround for this is to pre-transcode the file before streaming it to your Xbox 360. Right-click on the file and click 'Pre-transcode Files'. Once pre-transcoding has completed, then try streaming the file again. This time, you should see no stuttering/stopping due to transcoding issues. If you still see stuttering/stopping, check your wireless connection as this is a common cause for stuttering playback. If possible, your wireless connection should be wireless-N with full signal strength for best results.

    Mezzmo Android: Install it on your tablet, smartphone, Android TV or Amazon Fire to browse and stream files from your Mezzmo library to all your devices. Full details at http://www.conceiva.com/products/mez...mo_android.asp
    Mezzmo for Kodi Add-on: Install it into Kodi to stream files from your Mezzmo library directly in Kodi. Full details at http://www.mezzmo.com/wiki/doku.php?...odi_user_guide
    Mezzmo for Roku App: Install it onto your Roku to stream files from your Mezzmo library. Full details at http://www.mezzmo.com/wiki/doku.php?...oku_user_guide
    Wiki: User Guides & Reference Manual at http://www.mezzmo.com/wiki
    Facebook: http://www.facebook.com/Mezzmo.DLNA.Server
    Twitter: https://twitter.com/conceiva_mezzmo
    Web: http://www.mezzmo.com

Similar Threads

  1. Mezzmo server will not auto-start with windows start-up
    By Fleenor50 in forum Mezzmo Wish List and Feedback
    Replies: 2
    Last Post: 11-06-2012, 08:21 AM
  2. Streaming vids start/stop
    By Hokiebus in forum Mezzmo Questions and Support
    Replies: 4
    Last Post: 05-18-2011, 07:25 AM
  3. MKV Files stop playing on XBOX 360
    By mr.niceguy76 in forum Mezzmo Questions and Support
    Replies: 10
    Last Post: 02-21-2011, 05:36 PM
  4. Some MKV Files Play for 10 Seconds then stop
    By mcutugno in forum Mezzmo Questions and Support
    Replies: 16
    Last Post: 11-18-2010, 09:32 AM
  5. LG BD390 - FLAC and WAV files stop playing after 20 seconds
    By petar in forum Mezzmo Questions and Support
    Replies: 6
    Last Post: 09-15-2010, 09:50 AM

Tags for this Thread

Bookmarks

Posting Permissions

  • You may not post new threads
  • You may not post replies
  • You may not post attachments
  • You may not edit your posts
  •