Results 1 to 2 of 2

Thread: PN50C6400 - MKV won't play

  1. #1
    Join Date
    Jun 2010
    Posts
    1

    Default PN50C6400 - MKV won't play

    I'm using the Samsung C profile, and version 2.1.7 of Mezzmo.

    Here's the ffmpeg info:

    Code:
    FFmpeg version SVN-r23438, Copyright (c) 2000-2010 the FFmpeg developers
      built on Jun  3 2010 11:03:31 with gcc 4.4.0
      configuration: --enable-static --disable-shared --enable-memalign-hack --enable-libmp3lame --extra-cflags=-I/c/msys/local/include --extra-ldflags=-L/c/msys/local/lib --enable-zlib --enable-w32threads --extra-cflags=-fno-common --enable-gpl --enable-libx264 --disable-ffplay --disable-ffprobe --disable-ffserver
      libavutil     50.16. 0 / 50.16. 0
      libavcodec    52.73. 0 / 52.73. 0
      libavformat   52.67. 0 / 52.67. 0
      libavdevice   52. 2. 0 / 52. 2. 0
      libavfilter    1.20. 0 /  1.20. 0
      libswscale     0.11. 0 /  0.11. 0
    [matroska @ 0036cb30]Estimating duration from bitrate, this may be inaccurate
    Input #0, matroska, from 'O:\Movies\avatar.mkv':
      Duration: 02:41:41.68, start: 0.000000, bitrate: N/A
        Stream #0.0(eng): Video: h264, yuv420p, 1920x1080 [PAR 1:1 DAR 16:9], 23.98 fps, 23.98 tbr, 1k tbn, 47.95 tbc
        Stream #0.1(eng): Audio: dca, 48000 Hz, 6 channels, s16
        Stream #0.2(eng): Subtitle: [0][0][0][0] / 0x0000
    At least one output file must be specified
    The TV reports "Not support video codec", but I have another file of the same video codec that plays fine, info following:

    Code:
    FFmpeg version SVN-r23438, Copyright (c) 2000-2010 the FFmpeg developers
      built on Jun  3 2010 11:03:31 with gcc 4.4.0
      configuration: --enable-static --disable-shared --enable-memalign-hack --enable-libmp3lame --extra-cflags=-I/c/msys/local/include --extra-ldflags=-L/c/msys/local/lib --enable-zlib --enable-w32threads --extra-cflags=-fno-common --enable-gpl --enable-libx264 --disable-ffplay --disable-ffprobe --disable-ffserver
      libavutil     50.16. 0 / 50.16. 0
      libavcodec    52.73. 0 / 52.73. 0
      libavformat   52.67. 0 / 52.67. 0
      libavdevice   52. 2. 0 / 52. 2. 0
      libavfilter    1.20. 0 /  1.20. 0
      libswscale     0.11. 0 /  0.11. 0
    [matroska @ 0036cb40]Estimating duration from bitrate, this may be inaccurate
    
    Seems stream 0 codec frame rate differs from container frame rate: 47.95 (48000/1001) -> 24.00 (24/1)
    Input #0, matroska, from 'O:\Movies\avatars.mkv':
      Duration: 02:36:57.28, start: 0.000000, bitrate: 192 kb/s
        Stream #0.0(eng): Video: h264, yuv420p, 720x400 [PAR 1:1 DAR 9:5], 23.98 fps, 24 tbr, 1k tbn, 47.95 tbc
        Stream #0.1: Audio: ac3, 48000 Hz, stereo, s16, 192 kb/s
    At least one output file must be specified

    The only differences I can see are the audio, and the fact that the bitrate on the first movie reports as "N/A". As far as I can tell from my manual, this TV does indeed support DTS audio, and in any case, it's erroring on the video codec, not on the audio.

    Is the "N/A" for bitrate significant? Is there something wrong with the way this .MKV has been encoded, maybe?

  2. #2
    Join Date
    Nov 2007
    Location
    Melbourne, Australia
    Posts
    11,616

    Default

    Yes, I can play a similar file here:

    Code:
    FFmpeg version SVN-r23607, Copyright (c) 2000-2010 the FFmpeg developers
      built on Jun 15 2010 13:09:02 with gcc 4.4.0
      configuration: --enable-static --disable-shared --enable-memalign-hack --enable-libmp3lame --extra-cflags=-I/c/msys/local/include --extra-ldflags=-L/c/msys/local/lib --enable-zlib --enable-w32threads --extra-cflags=-fno-common --enable-gpl --enable-libx264 --disable-ffplay --disable-ffprobe --disable-ffserver --enable-runtime-cpudetect
      libavutil     50.19. 0 / 50.19. 0
      libavcodec    52.76. 0 / 52.76. 0
      libavformat   52.68. 0 / 52.68. 0
      libavdevice   52. 2. 0 / 52. 2. 0
      libavfilter    1.20. 0 /  1.20. 0
      libswscale     0.11. 0 /  0.11. 0
    [matroska @ 019ea790]Estimating duration from bitrate, this may be inaccurate
    Input #0, matroska, from 'G:\FFmpeg testing area\test1.mkv':
      Duration: 01:21:03.44, start: 0.000000, bitrate: N/A
        Chapter #0.0: start 0.000000, end 122.247000
        Metadata:
          title           : 00:00:00.000
        Chapter #0.1: start 122.247000, end 240.365000
        Metadata:
          title           : 00:02:02.247
        Chapter #0.2: start 240.365000, end 394.019000
        Metadata:
          title           : 00:04:00.365
        Chapter #0.3: start 394.019000, end 559.267000
        Metadata:
          title           : 00:06:34.019
        Chapter #0.4: start 559.267000, end 856.981000
        Metadata:
          title           : 00:09:19.267
        Chapter #0.5: start 856.981000, end 1210.251000
        Metadata:
          title           : 00:14:16.981
        Chapter #0.6: start 1210.251000, end 1337.211000
        Metadata:
          title           : 00:20:10.251
        Chapter #0.7: start 1337.211000, end 1464.963000
        Metadata:
          title           : 00:22:17.211
        Chapter #0.8: start 1464.963000, end 1561.226000
        Metadata:
          title           : 00:24:24.963
        Chapter #0.9: start 1561.226000, end 1768.934000
        Metadata:
          title           : 00:26:01.226
        Chapter #0.10: start 1768.934000, end 1809.349000
        Metadata:
          title           : 00:29:28.934
        Chapter #0.11: start 1809.349000, end 2109.858000
        Metadata:
          title           : 00:30:09.349
        Chapter #0.12: start 2109.858000, end 2365.405000
        Metadata:
          title           : 00:35:09.858
        Chapter #0.13: start 2365.405000, end 2579.535000
        Metadata:
          title           : 00:39:25.405
        Chapter #0.14: start 2579.535000, end 2623.329000
        Metadata:
          title           : 00:42:59.535
        Chapter #0.15: start 2623.329000, end 2785.699000
        Metadata:
          title           : 00:43:43.329
        Chapter #0.16: start 2785.699000, end 2840.171000
        Metadata:
          title           : 00:46:25.699
        Chapter #0.17: start 2840.171000, end 2948.112000
        Metadata:
          title           : 00:47:20.171
        Chapter #0.18: start 2948.112000, end 3068.524000
        Metadata:
          title           : 00:49:08.112
        Chapter #0.19: start 3068.524000, end 3229.935000
        Metadata:
          title           : 00:51:08.524
        Chapter #0.20: start 3229.935000, end 3383.714000
        Metadata:
          title           : 00:53:49.935
        Chapter #0.21: start 3383.714000, end 3434.765000
        Metadata:
          title           : 00:56:23.714
        Chapter #0.22: start 3434.765000, end 3701.072000
        Metadata:
          title           : 00:57:14.765
        Chapter #0.23: start 3701.072000, end 3770.100000
        Metadata:
          title           : 01:01:41.072
        Chapter #0.24: start 3770.100000, end 3889.093000
        Metadata:
          title           : 01:02:50.100
        Chapter #0.25: start 3889.093000, end 4078.658000
        Metadata:
          title           : 01:04:49.093
        Chapter #0.26: start 4078.658000, end 4390.302000
        Metadata:
          title           : 01:07:58.658
        Chapter #0.27: start 4390.302000, end 4540.077000
        Metadata:
          title           : 01:13:10.302
        Chapter #0.28: start 4540.077000, end 4628.374000
        Metadata:
          title           : 01:15:40.077
        Chapter #0.29: start 4628.374000, end 4863.443000
        Metadata:
          title           : 01:17:08.374
        Stream #0.0(eng): Video: h264, yuv420p, 1920x1080 [PAR 1:1 DAR 16:9], 23.98 fps, 23.98 tbr, 1k tbn, 47.95 tbc
        Stream #0.1(eng): Audio: dca, 48000 Hz, 6 channels, s16
        Metadata:
          title           : English DTS 1509kbps
        Stream #0.2(eng): Subtitle: [0][0][0][0] / 0x0000
        Metadata:
          title           : English
        Stream #0.3(dut): Subtitle: [0][0][0][0] / 0x0000
        Metadata:
          title           : Dutch
    At least one output file must be specified
    This is on a LA32C550 using "Samsung C" device profile.

    One thing to check, is if you SamsungLA.prf (which is the "C" profile) MKV section is like the following:

    Code:
            <avcontainer id="matroska" name="mkv" encode="1" mimetype="video/x-matroska" preferredtranscoded="1" dlnaprofile="MP3" supportschunked="0">
                    <video>
                            <format id="mpeg4" encode="0">
                            </format>
                    </video>
                    <video>
                            <format id="h264" encode="1" codec="libx264" preferredtranscoded="1">
                                    <maxbitrate>25000000</maxbitrate>
                                    <copyts>1</copyts>
                                    <samequality>1</samequality>
                                    <bitrate>8000000</bitrate>
                            </format>
                    </video>
                    <video>
                            <format id="mpeg2video" encode="0">
                            </format>
                    </video>
                    <audio>
                            <format id="ac3" encode="1" codec="ac3" preferredtranscoded="1">
    	                            <channels>2</channels>
    	                            <channels>6</channels>
    								<maxbitrate>448000</maxbitrate>
                                    <bitrate>448000</bitrate>
    								<maxsamplingrate>48000</maxsamplingrate>
    								<minsamplingrate>11025</minsamplingrate>
    								<samplingrate>48000</samplingrate>
    								<samplingrate>44100</samplingrate>
    								<samplingrate>32000</samplingrate>
                            </format>
                    </audio>
                    <audio>
                            <format id="aac" encode="0" codec="aac" preferredtranscoded="0">
    	                            <channels>2</channels>
    	                            <channels>6</channels>
    								<maxbitrate>384000</maxbitrate>
    								<bitrate>192000</bitrate>
    								<maxsamplingrate>48000</maxsamplingrate>
    								<minsamplingrate>11025</minsamplingrate>
    								<samplingrate>48000</samplingrate>
    								<samplingrate>44100</samplingrate>
    								<samplingrate>32000</samplingrate>
                            </format>
                    </audio>
                    <audio>
                            <format id="dca" encode="0" codec="dca">
                            </format>
                    </audio>
                    <ffmpegadditional>-coder 1 -flags +loop -cmp +chroma -me_method hex -subq 6 -me_range 16 -g 250 -keyint_min 25 -sc_threshold 40 -i_qfactor 0.71 -b_strategy 1 -qcomp 0.6 -qmin 10 -qmax 51 -qdiff 4 -bf 3 -refs 2 -directpred 1 -trellis 1 -flags2 +bpyramid+mixed_refs+wpred+dct8x8+fastpskip -wpredp 2</ffmpegadditional>
            </avcontainer>
    If it is, can you please contact support (at) conceiva (dot) com and we'll proceed further.

    Mezzmo Android: Install it on your tablet, smartphone, Android TV or Amazon Fire to browse and stream files from your Mezzmo library to all your devices. Full details at http://www.conceiva.com/products/mez...mo_android.asp
    Mezzmo for Kodi Add-on: Install it into Kodi to stream files from your Mezzmo library directly in Kodi. Full details at http://www.mezzmo.com/wiki/doku.php?...odi_user_guide
    Mezzmo for Roku App: Install it onto your Roku to stream files from your Mezzmo library. Full details at http://www.mezzmo.com/wiki/doku.php?...oku_user_guide
    Wiki: User Guides & Reference Manual at http://www.mezzmo.com/wiki
    Facebook: http://www.facebook.com/Mezzmo.DLNA.Server
    Twitter: https://twitter.com/conceiva_mezzmo
    Web: http://www.mezzmo.com

Tags for this Thread

Bookmarks

Posting Permissions

  • You may not post new threads
  • You may not post replies
  • You may not post attachments
  • You may not edit your posts
  •