Results 1 to 3 of 3

Thread: Streaming MKV files to XBox 360 results in Stereo and lost 5.1 Audio

  1. #1
    Join Date
    Dec 2012
    Posts
    2

    Question Streaming MKV files to XBox 360 results in Stereo and lost 5.1 Audio

    I have a large amount of MKV files. Whenever I stream any of them using Mezzmo, the end result is stereo audio being played on my receiver.

    However, if I send it to a WD-TV Live directly, it works fine, and I get Digital Dolby 5.1 wonderfuly.

    Any suggestions?

    Here is my FFDShow output during the conversion:

    ffmpeg version N-40693-gc457a29 Copyright (c) 2000-2012 the FFmpeg developers
    built on May 15 2012 12:57:14 with gcc 4.6.2
    configuration: --enable-memalign-hack --arch=x86 --target-os=mingw32 --cross-prefix=i686-w64-mingw32- --enable-static --disable-shared --enable-zlib --disable-postproc --prefix=/home/peter/ffmpeg/build/gpl --enable-libmp3lame --enable-libx264 --enable-gpl --extra-libs='-lx264 -lpthread' --enable-runtime-cpudetect --extra-cflags=-I/home/peter/cc/include --extra-ldflags=-L/home/peter/cc/lib --pkg-config=pkg-config --disable-w32threads
    libavutil 51. 51.100 / 51. 51.100
    libavcodec 54. 21.101 / 54. 21.101
    libavformat 54. 5.100 / 54. 5.100
    libavdevice 53. 4.100 / 53. 4.100
    libavfilter 2. 73.100 / 2. 73.100
    libswscale 2. 1.100 / 2. 1.100
    libswresample 0. 11.100 / 0. 11.100
    Input #0, matroska,webm, from 'M:\Video\Special\File.mkv:
    Metadata:
    creation_time : 2012-11-26 22:50:10
    Duration: 00:43:12.16, start: 0.000000, bitrate: 5514 kb/s
    Stream #0:0(eng): Video: h264 (High), yuv420p, 1920x1080 [SAR 1:1 DAR 16:9], 23.98 fps, 23.98 tbr, 1k tbn, 2k tbc (default)
    Stream #0:1(eng): Audio: ac3, 48000 Hz, 5.1(side), s16, 384 kb/s (default)
    [buffer @ 0362ff40] w:1920 h:1080 pixfmt:yuv420p tb:1/1000000 sar:1/1 sws_param:flags=2
    [buffersink @ 03c1fc60] No opaque field provided
    [yadif @ 03557560] mode:0 parity:-1 auto_enable:0
    [scale @ 03af16a0] w:1920 h:1080 fmt:yuv420p sar:1/1 -> w:1280 h:720 fmt:yuv420p sar:1/1 flags:0x4
    [ac3 @ 03566160] channel layout does not match number of channels
    Guessed Channel Layout for Input Stream #0.1 : stereo

    Output #0, asf, to 'N:\TranscodingFiles\73DBA4DC-58B6-4754-857D-D35FA5E058D4\Video\931-asf-wmv2-wmav2.mzt':
    Metadata:
    creation_time : 2012-11-26 22:50:10
    WM/EncodingSettings: Lavf54.5.100
    Stream #0:0(eng): Video: wmv2 (hq) (WMV2 / 0x32564D57), yuv420p, 1280x720 [SAR 1:1 DAR 16:9], q=2-31, 11000 kb/s, 1k tbn, 23.98 tbc (default)
    Stream #0:1(eng): Audio: wmav2 (a[1][0][0] / 0x0161), 48000 Hz, stereo, s16, 127 kb/s (default)
    Stream mapping:
    Stream #0:0 -> #0:0 (h264 -> wmv2)
    Stream #0:1 -> #0:1 (ac3 -> wmav2)
    Press [q] to stop, [?] for help
    Input stream #0:1 frame changed from rate:48000 fmt:s16 ch:6 chl:0x60f to rate:48000 fmt:s16 ch:2 chl:0x3
    [h264 @ 03f1e0c0] Increasing reorder buffer to 1
    I suspect the Bolded part about the channels is the issue, but how do you fix it?


    Here is the properties of the file itself:

    ===================== General =====================
    Format : Matroska
    File size : 1.66 GB
    Duration (ms) : 43mn 12s
    Total bitrate : 5 515 Kbps
    Encoded date : UTC 2012-11-26 22:50:10
    Encoded application : mkvmerge v5.8.0 ('No Sleep / Pillow') built on Sep 2 2012 15:37:04
    Encoded library : libebml v1.2.3 + libmatroska v1.3.0

    ===================== Video =====================
    Id : 1
    Format : AVC
    Format info : Advanced Video Codec
    Format profile : High@L4.0
    Use of CABAC : Yes
    RefFrames : 4 frames
    Muxing mode : Container profile=Unknown@4.0
    Codec Id : V_MPEG4/ISO/AVC
    Duration (ms) : 43mn 12s
    Bitrate mode : Variable
    Bitrate : 5 021 Kbps
    Width : 1 920 pixels
    Height : 1 080 pixels
    Aspect ratio : 16:9
    Framerate : 23.976 fps
    Colorimetry : YUV
    Colos space : 4:2:0
    Bit depth : 8 bits
    Scan type : Progressive
    Bits/(Pixel*Frame) : 0.101
    Stream size : 1.52 GB (91%)
    Language : English
    Color primaries : BT.709-5, BT.1361, IEC 61966-2-4, SMPTE RP177
    Transfer characteristics : BT.709-5, BT.1361
    Matrix coefficients : BT.709-5, BT.1361, IEC 61966-2-4 709, SMPTE RP177

    ===================== Audio =====================
    Id : 2
    Format : AC-3
    Format info : Audio Coding 3
    Format settings mode extens : CM (complete main)
    Codec Id : A_AC3
    Duration (ms) : 43mn 12s
    Bitrate mode : Constant
    Bitrate : 384 Kbps
    Channel(s) : 6 channels
    ChannelPositions : Front: L C R, Side: L R, LFE
    Sampling rate : 48.0 KHz
    Bit depth : 16 bits
    Stream size : 119 MB (7%)
    Language : English
    Thoughts? Suggestions? Ideas?

    I just installed the trial, I was hoping to figure out if this would do what I want before my trial ends.

    Thanks!

  2. #2
    Join Date
    Nov 2007
    Location
    Melbourne, Australia
    Posts
    11,647

    Default

    Email us at support [at] conceiva [dot] com and we'll provide you with an updated device profile to try.

    Mezzmo Android: Install it on your tablet, smartphone, Android TV or Amazon Fire to browse and stream files from your Mezzmo library to all your devices. Full details at http://www.conceiva.com/products/mez...mo_android.asp
    Mezzmo for Kodi Add-on: Install it into Kodi to stream files from your Mezzmo library directly in Kodi. Full details at http://www.mezzmo.com/wiki/doku.php?...odi_user_guide
    Mezzmo for Roku App: Install it onto your Roku to stream files from your Mezzmo library. Full details at http://www.mezzmo.com/wiki/doku.php?...oku_user_guide
    Wiki: User Guides & Reference Manual at http://www.mezzmo.com/wiki
    Facebook: http://www.facebook.com/Mezzmo.DLNA.Server
    Twitter: https://twitter.com/conceiva_mezzmo
    Web: http://www.mezzmo.com

  3. #3
    Join Date
    Dec 2012
    Posts
    2

    Default

    Email sent. Thanks!!!

Similar Threads

  1. sony bdp-s580 streaming question/vidio audio track streaming problem
    By tryco2 in forum Mezzmo Questions and Support
    Replies: 3
    Last Post: 09-13-2012, 03:16 AM
  2. Out of sync audio (MP4 files) - but only when streaming?
    By thescarletfire in forum Mezzmo Questions and Support
    Replies: 9
    Last Post: 01-03-2012, 10:49 AM
  3. dvr-ms files stuttering and playing in stereo on Xbox 360
    By beetlejuice in forum Mezzmo Questions and Support
    Replies: 1
    Last Post: 11-14-2011, 10:13 AM
  4. mp4 with 5.1 AAC audio not playing on xbox 360
    By Koekebeest in forum Mezzmo Questions and Support
    Replies: 44
    Last Post: 02-11-2011, 09:02 AM
  5. Play video file but lost audio after 30 sec
    By dtarin in forum Mezzmo Questions and Support
    Replies: 1
    Last Post: 09-27-2010, 10:09 AM

Tags for this Thread

Bookmarks

Posting Permissions

  • You may not post new threads
  • You may not post replies
  • You may not post attachments
  • You may not edit your posts
  •