Results 1 to 4 of 4

Thread: Humax HDR FOX T2 streaming mp4

  1. #1
    Join Date
    Dec 2012
    Posts
    4

    Default Humax HDR FOX T2 streaming mp4

    Hi

    i purchased this media server because it said it supported the humax

    the main problem is the streaming of mp4s to the HDR

    some mp4s play fine, and others won't, (file not supported)

    files are dvd rips and converted to mp4 (using nero recode 12 ac3 pass through)

    other dlna devices on the network motorola xoom, xbox 360s, sony BD player, Panasonic BD player, all files play fine on these networked devices.

  2. #2
    Join Date
    Nov 2007
    Location
    Melbourne, Australia
    Posts
    11,616

    Default

    Check the device profile that is assigned to your Humax HDR device in Mezzmo. Go to the Media Devices dialog to see this. It should be set to the 'Humax HDR' device profile.

    If no better, please post the FFmpeg information on a few of the MP4 files that do not play and a few that do play. To do this, right-click on the MP4 file in Mezzmo and click 'Get FFmpeg Information'.

    Mezzmo Android: Install it on your tablet, smartphone, Android TV or Amazon Fire to browse and stream files from your Mezzmo library to all your devices. Full details at http://www.conceiva.com/products/mez...mo_android.asp
    Mezzmo for Kodi Add-on: Install it into Kodi to stream files from your Mezzmo library directly in Kodi. Full details at http://www.mezzmo.com/wiki/doku.php?...odi_user_guide
    Mezzmo for Roku App: Install it onto your Roku to stream files from your Mezzmo library. Full details at http://www.mezzmo.com/wiki/doku.php?...oku_user_guide
    Wiki: User Guides & Reference Manual at http://www.mezzmo.com/wiki
    Facebook: http://www.facebook.com/Mezzmo.DLNA.Server
    Twitter: https://twitter.com/conceiva_mezzmo
    Web: http://www.mezzmo.com

  3. #3
    Join Date
    Dec 2012
    Posts
    4

    Default

    files that won't play

    ffmpeg version N-40693-gc457a29 Copyright (c) 2000-2012 the FFmpeg developers
    built on May 15 2012 12:57:14 with gcc 4.6.2
    configuration: --enable-memalign-hack --arch=x86 --target-os=mingw32 --cross-prefix=i686-w64-mingw32- --enable-static --disable-shared --enable-zlib --disable-postproc --prefix=/home/peter/ffmpeg/build/gpl --enable-libmp3lame --enable-libx264 --enable-gpl --extra-libs='-lx264 -lpthread' --enable-runtime-cpudetect --extra-cflags=-I/home/peter/cc/include --extra-ldflags=-L/home/peter/cc/lib --pkg-config=pkg-config --disable-w32threads
    libavutil 51. 51.100 / 51. 51.100
    libavcodec 54. 21.101 / 54. 21.101
    libavformat 54. 5.100 / 54. 5.100
    libavdevice 53. 4.100 / 53. 4.100
    libavfilter 2. 73.100 / 2. 73.100
    libswscale 2. 1.100 / 2. 1.100
    libswresample 0. 11.100 / 0. 11.100
    Input #0, mov,mp4,m4a,3gp,3g2,mj2, from 'D:\films\SciFi\Transformers\Revenge of the Fallen.mp4':
    Metadata:
    major_brand : mp42
    minor_version : 0
    compatible_brands: ndhdavc1mp42isom
    creation_time : 2012-12-11 19:48:40
    Duration: 02:23:44.96, start: 0.000000, bitrate: 2875 kb/s
    Chapter #0.0: start 0.000000, end 8624.960000
    Metadata:
    title : Start
    Stream #0:0(eng): Video: h264 (Main) (avc1 / 0x31637661), yuv420p, 720x576 [SAR 64:45 DAR 16:9], 2425 kb/s, 25 fps, 25 tbr, 25k tbn, 50 tbc
    Metadata:
    creation_time : 2012-12-11 19:48:40
    handler_name : Video Media Handler
    Stream #0:1(eng): Audio: ac3 (ac-3 / 0x332D6361), 48000 Hz, 5.1(side), s16, 448 kb/s
    Metadata:
    creation_time : 2012-12-11 19:48:41
    handler_name : Sound Media Handler
    At least one output file must be specified


    ---> DB Level Info: 30, 77
    ---> Frame rate: 25.00
    ---> Aspect ratio: 16:9

    ffmpeg version N-40693-gc457a29 Copyright (c) 2000-2012 the FFmpeg developers
    built on May 15 2012 12:57:14 with gcc 4.6.2
    configuration: --enable-memalign-hack --arch=x86 --target-os=mingw32 --cross-prefix=i686-w64-mingw32- --enable-static --disable-shared --enable-zlib --disable-postproc --prefix=/home/peter/ffmpeg/build/gpl --enable-libmp3lame --enable-libx264 --enable-gpl --extra-libs='-lx264 -lpthread' --enable-runtime-cpudetect --extra-cflags=-I/home/peter/cc/include --extra-ldflags=-L/home/peter/cc/lib --pkg-config=pkg-config --disable-w32threads
    libavutil 51. 51.100 / 51. 51.100
    libavcodec 54. 21.101 / 54. 21.101
    libavformat 54. 5.100 / 54. 5.100
    libavdevice 53. 4.100 / 53. 4.100
    libavfilter 2. 73.100 / 2. 73.100
    libswscale 2. 1.100 / 2. 1.100
    libswresample 0. 11.100 / 0. 11.100
    Input #0, mov,mp4,m4a,3gp,3g2,mj2, from 'D:\films\Action thriller\Apocalyto.mp4':
    Metadata:
    major_brand : mp42
    minor_version : 0
    compatible_brands: ndhdavc1mp42isom
    creation_time : 2012-12-13 20:58:58
    Duration: 02:12:08.84, start: 0.000000, bitrate: 2855 kb/s
    Chapter #0.0: start 0.000000, end 7928.840000
    Metadata:
    title : Start
    Stream #0:0(eng): Video: h264 (Main) (avc1 / 0x31637661), yuv420p, 720x576 [SAR 64:45 DAR 16:9], 2405 kb/s, 25 fps, 25 tbr, 25k tbn, 50 tbc
    Metadata:
    creation_time : 2012-12-13 20:58:58
    handler_name : Video Media Handler
    Stream #0:1(eng): Audio: ac3 (ac-3 / 0x332D6361), 48000 Hz, 5.1(side), s16, 448 kb/s
    Metadata:
    creation_time : 2012-12-13 20:58:59
    handler_name : Sound Media Handler
    At least one output file must be specified


    ---> DB Level Info: 30, 77
    ---> Frame rate: 25.00
    ---> Aspect ratio: 16:9

    Files that will play

    ffmpeg version N-40693-gc457a29 Copyright (c) 2000-2012 the FFmpeg developers
    built on May 15 2012 12:57:14 with gcc 4.6.2
    configuration: --enable-memalign-hack --arch=x86 --target-os=mingw32 --cross-prefix=i686-w64-mingw32- --enable-static --disable-shared --enable-zlib --disable-postproc --prefix=/home/peter/ffmpeg/build/gpl --enable-libmp3lame --enable-libx264 --enable-gpl --extra-libs='-lx264 -lpthread' --enable-runtime-cpudetect --extra-cflags=-I/home/peter/cc/include --extra-ldflags=-L/home/peter/cc/lib --pkg-config=pkg-config --disable-w32threads
    libavutil 51. 51.100 / 51. 51.100
    libavcodec 54. 21.101 / 54. 21.101
    libavformat 54. 5.100 / 54. 5.100
    libavdevice 53. 4.100 / 53. 4.100
    libavfilter 2. 73.100 / 2. 73.100
    libswscale 2. 1.100 / 2. 1.100
    libswresample 0. 11.100 / 0. 11.100
    Input #0, mov,mp4,m4a,3gp,3g2,mj2, from 'D:\films\Action thriller\Jason Bourne\The Bourne Supremacy.mp4':
    Metadata:
    major_brand : mp42
    minor_version : 0
    compatible_brands: ndhdavc1mp42isom
    creation_time : 2012-12-12 20:30:49
    Duration: 01:43:59.36, start: 0.000000, bitrate: 2592 kb/s
    Chapter #0.0: start 0.000000, end 6239.360000
    Metadata:
    title : Start
    Stream #0:0(eng): Video: h264 (Main) (avc1 / 0x31637661), yuv420p, 720x576 [SAR 64:45 DAR 16:9], 2206 kb/s, 25 fps, 25 tbr, 25k tbn, 50 tbc
    Metadata:
    creation_time : 2012-12-12 20:30:49
    handler_name : Video Media Handler
    Stream #0:1(eng): Audio: ac3 (ac-3 / 0x332D6361), 48000 Hz, 5.1(side), s16, 384 kb/s
    Metadata:
    creation_time : 2012-12-12 20:30:49
    handler_name : Sound Media Handler
    At least one output file must be specified


    ---> DB Level Info: 30, 77
    ---> Frame rate: 25.00
    ---> Aspect ratio: 16:9

    ffmpeg version N-40693-gc457a29 Copyright (c) 2000-2012 the FFmpeg developers
    built on May 15 2012 12:57:14 with gcc 4.6.2
    configuration: --enable-memalign-hack --arch=x86 --target-os=mingw32 --cross-prefix=i686-w64-mingw32- --enable-static --disable-shared --enable-zlib --disable-postproc --prefix=/home/peter/ffmpeg/build/gpl --enable-libmp3lame --enable-libx264 --enable-gpl --extra-libs='-lx264 -lpthread' --enable-runtime-cpudetect --extra-cflags=-I/home/peter/cc/include --extra-ldflags=-L/home/peter/cc/lib --pkg-config=pkg-config --disable-w32threads
    libavutil 51. 51.100 / 51. 51.100
    libavcodec 54. 21.101 / 54. 21.101
    libavformat 54. 5.100 / 54. 5.100
    libavdevice 53. 4.100 / 53. 4.100
    libavfilter 2. 73.100 / 2. 73.100
    libswscale 2. 1.100 / 2. 1.100
    libswresample 0. 11.100 / 0. 11.100
    [mov,mp4,m4a,3gp,3g2,mj2 @ 0158bc40] multiple edit list entries, a/v desync might occur, patch welcome
    Input #0, mov,mp4,m4a,3gp,3g2,mj2, from 'D:\films\Action thriller\10,000 BC.mp4':
    Metadata:
    major_brand : mp42
    minor_version : 0
    compatible_brands: ndhdavc1mp42isom
    creation_time : 2012-12-12 13:23:25
    Duration: 01:44:26.56, start: 0.000000, bitrate: 2625 kb/s
    Chapter #0.0: start 0.000000, end 6266.560000
    Metadata:
    title : Start
    Stream #0:0(eng): Video: h264 (Main) (avc1 / 0x31637661), yuv420p, 720x576 [SAR 64:45 DAR 16:9], 2239 kb/s, 25 fps, 25 tbr, 25k tbn, 50 tbc
    Metadata:
    creation_time : 2012-12-12 13:23:25
    handler_name : Video Media Handler
    Stream #0:1(eng): Audio: ac3 (ac-3 / 0x332D6361), 48000 Hz, 5.1(side), s16, 384 kb/s
    Metadata:
    creation_time : 2012-12-12 13:23:26
    handler_name : Sound Media Handler
    At least one output file must be specified


    ---> DB Level Info: 30, 77
    ---> Frame rate: 25.00
    ---> Aspect ratio: 16:9

    the device profile is set to Humax HDR

  4. #4
    Join Date
    Nov 2007
    Location
    Melbourne, Australia
    Posts
    11,616

    Default

    Thanks for the further information. The MP4 files look quite similar. It's best we see a set of logs to better determine what is going wrong. Please turn on logging (see http://forum.conceiva.com/showthread...nostic-logging) and restart your Mezzmo server. Try streaming a file that does not play. When it fails, then try streaming a file that does play. When it starts playing, you can stop your Mezzmo server and exit Mezzmo. Zip up all the logs and email them to us at support [at] conceiva [dot] com.

    Mezzmo Android: Install it on your tablet, smartphone, Android TV or Amazon Fire to browse and stream files from your Mezzmo library to all your devices. Full details at http://www.conceiva.com/products/mez...mo_android.asp
    Mezzmo for Kodi Add-on: Install it into Kodi to stream files from your Mezzmo library directly in Kodi. Full details at http://www.mezzmo.com/wiki/doku.php?...odi_user_guide
    Mezzmo for Roku App: Install it onto your Roku to stream files from your Mezzmo library. Full details at http://www.mezzmo.com/wiki/doku.php?...oku_user_guide
    Wiki: User Guides & Reference Manual at http://www.mezzmo.com/wiki
    Facebook: http://www.facebook.com/Mezzmo.DLNA.Server
    Twitter: https://twitter.com/conceiva_mezzmo
    Web: http://www.mezzmo.com

Similar Threads

  1. Mezzmo and Humax 5100c
    By Crichton in forum Mezzmo Questions and Support
    Replies: 5
    Last Post: 11-19-2012, 09:32 AM
  2. Should my Humax FoxSat HDR show up as a media device in mezzmo?
    By Wakelest in forum Mezzmo Questions and Support
    Replies: 5
    Last Post: 11-11-2011, 03:01 PM
  3. Humax FOXSAT HDR - Playback Not Available
    By slendervip in forum Mezzmo Questions and Support
    Replies: 14
    Last Post: 02-08-2011, 07:47 AM
  4. Can see filters but not files from Humax HDR FOX-T2
    By Sandholme in forum Mezzmo Questions and Support
    Replies: 8
    Last Post: 12-24-2010, 08:52 AM
  5. Humax HDR-FOX T2: MKV plays on USB but not thru' Mezzmo
    By visualunderground in forum Mezzmo Questions and Support
    Replies: 1
    Last Post: 12-24-2010, 08:37 AM

Tags for this Thread

Bookmarks

Posting Permissions

  • You may not post new threads
  • You may not post replies
  • You may not post attachments
  • You may not edit your posts
  •