Results 1 to 2 of 2

Thread: Mezzmo - Can't read the file

  1. #1
    Join Date
    Jul 2012
    Posts
    4

    Default Mezzmo - Can't read the file

    I have a movie which failed to play on Panasonic VIERA. When I try to play it, it show " can't read the file"

    The ffmpeg is:

    ffmpeg version N-46003-gfa48da1 Copyright (c) 2000-2012 the FFmpeg developers
    built on Oct 25 2012 12:37:27 with gcc 4.6.2 (GCC)
    configuration: --enable-memalign-hack --arch=x86 --target-os=mingw32 --cross-prefix=i686-w64-mingw32- --enable-static --disable-shared --enable-zlib --disable-postproc --prefix=/home/peter/ffmpeg/build/gpl --enable-libmp3lame --enable-libx264 --enable-gpl --extra-libs='-lx264 -lpthread' --enable-runtime-cpudetect --extra-cflags=-I/home/peter/cc/include --extra-ldflags=-L/home/peter/cc/lib --pkg-config=pkg-config --disable-w32threads --enable-zlib
    libavutil 52. 0.100 / 52. 0.100
    libavcodec 54. 69.100 / 54. 69.100
    libavformat 54. 34.100 / 54. 34.100
    libavdevice 54. 3.100 / 54. 3.100
    libavfilter 3. 20.105 / 3. 20.105
    libswscale 2. 1.101 / 2. 1.101
    libswresample 0. 16.100 / 0. 16.100
    Input #0, matroska,webm, from 'C:\Users\suriya\Desktop\Mission\Mtr.dms.2011.720p-DON\Mientras.duermes.2011.720p.BluRay.x264-DON.mkv':
    Metadata:
    creation_time : 2012-06-03 16:34:17
    Duration: 01:40:45.12, start: 0.000000, bitrate: 10508 kb/s
    Chapter #0.0: start 0.000000, end 492.667000
    Metadata:
    title : 00:00:00.000
    Chapter #0.1: start 492.667000, end 1042.625000
    Metadata:
    title : 00:08:12.667
    Chapter #0.2: start 1042.625000, end 1682.125000
    Metadata:
    title : 00:17:22.625
    Chapter #0.3: start 1682.125000, end 2143.375000
    Metadata:
    title : 00:28:02.125
    Chapter #0.4: start 2143.375000, end 2517.875000
    Metadata:
    title : 00:35:43.375
    Chapter #0.5: start 2517.875000, end 3029.625000
    Metadata:
    title : 00:41:57.875
    Chapter #0.6: start 3029.625000, end 3508.000000
    Metadata:
    title : 00:50:29.625
    Chapter #0.7: start 3508.000000, end 4220.958000
    Metadata:
    title : 00:58:28.000
    Chapter #0.8: start 4220.958000, end 4523.792000
    Metadata:
    title : 01:10:20.958
    Chapter #0.9: start 4523.792000, end 4992.583000
    Metadata:
    title : 01:15:23.792
    Chapter #0.10: start 4992.583000, end 5334.833000
    Metadata:
    title : 01:23:12.583
    Chapter #0.11: start 5334.833000, end 6045.125000
    Metadata:
    title : 01:28:54.833
    Stream #0:0(spa): Video: h264 (High), yuv420p, 1280x546 [SAR 1:1 DAR 640:273], 24 fps, 24 tbr, 1k tbn, 48 tbc (default)
    Stream #0:1(spa): Audio: ac3, 48000 Hz, 5.1(side), s16, 640 kb/s (default)
    Stream #0:2(eng): Subtitle: subrip
    At least one output file must be specified

    <MEZZMO>: Child process ended with code: 109, ExitCode=1


    ---> DB Level Info: 41, 100
    ---> Frame rate: 24.00
    ---> Aspect ratio: 640:273

  2. #2
    Join Date
    Sep 2009
    Posts
    1,713

    Default

    Hi,
    please enable diagnostic logging http://forum.conceiva.com/showthread...nostic-logging and then after restarting your Mezzmo media server try streaming the file to the device then send the logs to support [at] conceiva [dot] com

    Mezzmo Android: Install it on your tablet, smartphone, Android TV or Amazon Fire to browse and stream files from your Mezzmo library to all your devices. Full details at http://www.conceiva.com/products/mez...mo_android.asp
    Mezzmo for Kodi Add-on: Install it into Kodi to stream files from your Mezzmo library directly in Kodi. Full details at http://www.mezzmo.com/wiki/doku.php?...odi_user_guide
    Mezzmo for Roku App: Install it onto your Roku to stream files from your Mezzmo library. Full details at http://www.mezzmo.com/wiki/doku.php?...oku_user_guide
    Wiki: User Guides & Reference Manual at http://www.mezzmo.com/wiki
    Facebook: http://www.facebook.com/Mezzmo.DLNA.Server
    Twitter: https://twitter.com/conceiva_mezzmo
    Web: http://www.mezzmo.com

Similar Threads

  1. Can't read file
    By jahbli in forum Mezzmo Questions and Support
    Replies: 1
    Last Post: 09-18-2012, 09:04 AM
  2. Panasonic Viera cannot read file.
    By Scottm355 in forum Mezzmo Questions and Support
    Replies: 1
    Last Post: 05-15-2012, 10:15 AM
  3. Mezzmo "cannot read file" for avi movies
    By damienb in forum Mezzmo Questions and Support
    Replies: 1
    Last Post: 04-10-2012, 10:32 AM
  4. panasonic G20: DivX native support fails. Error: Can't read file
    By houja in forum Mezzmo Questions and Support
    Replies: 3
    Last Post: 08-22-2011, 08:59 AM
  5. Cannot Read File
    By Hyldnir in forum Mezzmo Questions and Support
    Replies: 1
    Last Post: 08-05-2011, 08:36 AM

Tags for this Thread

Bookmarks

Posting Permissions

  • You may not post new threads
  • You may not post replies
  • You may not post attachments
  • You may not edit your posts
  •