Results 1 to 3 of 3

Thread: panasonic p42s30, never got SRT to work ever.

  1. #1

    Default panasonic p42s30, never got SRT to work ever.

    Please help.

    Ive used mezzmo for about 2 years. have never got .srt files to work on my TV. I just got a movie that absolutely needs the .srt file.

    the File is an MP4 i think. The sub is an srt.

    I'm using the Viera No DIVX profile as thats the one that has worked best.

    Will a custom profile help me?

    Thanks
    Last edited by jton219; 01-04-2013 at 04:39 PM.

  2. #2

    Default

    FFMpeg info


    ffmpeg version N-40693-gc457a29 Copyright (c) 2000-2012 the FFmpeg developers
    built on May 15 2012 12:57:14 with gcc 4.6.2
    configuration: --enable-memalign-hack --arch=x86 --target-os=mingw32 --cross-prefix=i686-w64-mingw32- --enable-static --disable-shared --enable-zlib --disable-postproc --prefix=/home/peter/ffmpeg/build/gpl --enable-libmp3lame --enable-libx264 --enable-gpl --extra-libs='-lx264 -lpthread' --enable-runtime-cpudetect --extra-cflags=-I/home/peter/cc/include --extra-ldflags=-L/home/peter/cc/lib --pkg-config=pkg-config --disable-w32threads
    libavutil 51. 51.100 / 51. 51.100
    libavcodec 54. 21.101 / 54. 21.101
    libavformat 54. 5.100 / 54. 5.100
    libavdevice 53. 4.100 / 53. 4.100
    libavfilter 2. 73.100 / 2. 73.100
    libswscale 2. 1.100 / 2. 1.100
    libswresample 0. 11.100 / 0. 11.100
    Input #0, matroska,webm, from 'D:\Media\Rurouni.Kenshin.2012.BluRay.720p.x264-YYeTs [PublicHD]\Rurouni.Kenshin.2012.BluRay.720p.DD5.1.x264-YYeTs.mkv':
    Metadata:
    creation_time : 2012-12-30 01:29:25
    Duration: 02:14:26.08, start: 0.000000, bitrate: 4642 kb/s
    Stream #0:0(eng): Video: h264 (High), yuv420p, 1280x536, SAR 1:1 DAR 160:67, 23.98 fps, 23.98 tbr, 1k tbn, 47.95 tbc (default)
    Stream #0:1: Audio: ac3, 48000 Hz, 5.1(side), s16, 640 kb/s (default)
    At least one output file must be specified


    ---> DB Level Info: 41, 100
    ---> Frame rate: 23.98
    ---> Aspect ratio: 160:67

  3. #3
    Join Date
    Sep 2009
    Posts
    1,968

    Default

    Hi,
    the MezzmoMediaServer.exe folder for the logs is empty, can you please try restarting your Mezzmo server to generate the logs?

    srt files for Panasonic TVs require the use of avi files, if you use Panasonic Viera (No DivX) then you won't be able to view videos with srt file subtitles. If the original file is an avi file then you can use the Panasonic Viera (2011 Models) profile or the Panasonic Viera profile and try streaming it to see if you get subtitles.

    If the original file is not an avi but your TV does support avi, please send us an email to support [at] conceiva [dot] com and we will send you an updated device profile that will allow you to pre-transcode the file to avi.

    If your TV does not support avi then you will need to wait for Mezzmo 3.0 to be released which has support for burning subtitles into the video.

    Since your original file is an MKV file you can embed the srt file within it, see the following page for more information http://www.noblemd.info/index.php?op...id=9&Itemid=11, Panasonic Viera 2011 Models and later support MKV and you can enable the embedded subtitles for display using the option button on the remote control.
    Last edited by Peter; 01-04-2013 at 05:04 PM.

    Mezzmo Android: Install it on your tablet, smartphone, Android TV or Amazon Fire to browse and stream files from your Mezzmo library to all your devices. Full details at http://www.conceiva.com/products/mez...mo_android.asp
    Mezzmo for Kodi Add-on: Install it into Kodi to stream files from your Mezzmo library directly in Kodi. Full details at http://www.mezzmo.com/wiki/doku.php?...odi_user_guide
    Mezzmo for Roku App: Install it onto your Roku to stream files from your Mezzmo library. Full details at http://www.mezzmo.com/wiki/doku.php?...oku_user_guide
    Wiki: User Guides & Reference Manual at http://www.mezzmo.com/wiki
    Facebook: http://www.facebook.com/Mezzmo.DLNA.Server
    Twitter: https://twitter.com/conceiva_mezzmo
    Web: http://www.mezzmo.com

Similar Threads

  1. how does licensing work?
    By joecline in forum Mezzmo Questions and Support
    Replies: 1
    Last Post: 12-10-2011, 08:32 PM
  2. MTS files don't work for me
    By Gargo in forum Mezzmo Questions and Support
    Replies: 9
    Last Post: 08-03-2011, 05:52 PM
  3. MP4 Doesn't work on 2.2.0
    By bryanradtke in forum Mezzmo Questions and Support
    Replies: 2
    Last Post: 03-07-2011, 04:40 PM
  4. Will Mezzmo work for me?
    By rbn1 in forum Mezzmo Questions and Support
    Replies: 3
    Last Post: 01-01-2011, 10:42 AM
  5. The commandline does NOT work
    By ziongates in forum DownloadStudio Questions and Support
    Replies: 3
    Last Post: 03-02-2009, 09:34 AM

Tags for this Thread

Bookmarks

Posting Permissions

  • You may not post new threads
  • You may not post replies
  • You may not post attachments
  • You may not edit your posts
  •