Results 1 to 4 of 4

Thread: Yeah... Here we go again. Major release, major device profile issues

  1. #1
    Join Date
    Mar 2011
    Posts
    70

    Default Yeah... Here we go again. Major release, major device profile issues

    I hate to say it but you guys really broke me this time. My Sony SMP N100, Sony SMP N200 and at least one of my Samsung Blu Ray (BD-C6500) are broken. Some major containers that previously worked are broken now. This is surprising since previous breaks have been limited to one device maker at a time. All the following get corrupt files on all devices above. All except the AVI fourcc DIV3 played on the n200. I have four other devices that I have not a had a chance to check. I am rolling back to 2.71. It was all working except AVI DIV3s. I can re-encode those. How do take upgrades with any confidence?

    ffmpeg version N-46003-gfa48da1 Copyright (c) 2000-2012 the FFmpeg developers
    built on Oct 25 2012 12:37:27 with gcc 4.6.2 (GCC)
    configuration: --enable-memalign-hack --arch=x86 --target-os=mingw32 --cross-prefix=i686-w64-mingw32- --enable-static --disable-shared --enable-zlib --disable-postproc --prefix=/home/peter/ffmpeg/build/gpl --enable-libmp3lame --enable-libx264 --enable-gpl --extra-libs='-lx264 -lpthread' --enable-runtime-cpudetect --extra-cflags=-I/home/peter/cc/include --extra-ldflags=-L/home/peter/cc/lib --pkg-config=pkg-config --disable-w32threads --enable-zlib
    libavutil 52. 0.100 / 52. 0.100
    libavcodec 54. 69.100 / 54. 69.100
    libavformat 54. 34.100 / 54. 34.100
    libavdevice 54. 3.100 / 54. 3.100
    libavfilter 3. 20.105 / 3. 20.105
    libswscale 2. 1.101 / 2. 1.101
    libswresample 0. 16.100 / 0. 16.100
    Input #0, avi, from 'XXXXXXXXXXXXXXXXXXXXX.avi':
    Duration: 00:22:36.49, start: 0.000000, bitrate: 393 kb/s
    Stream #0:0: Video: msmpeg4v3 (DIV3 / 0x33564944), yuv420p, 320x240, 29.97 tbr, 29.97 tbn, 29.97 tbc
    Stream #0:1: Audio: mp3 (U[0][0][0] / 0x0055), 44100 Hz, stereo, s16, 96 kb/s
    At least one output file must be specified

    <MEZZMO>: Child process ended with code: 109, ExitCode=1


    ---> DB Level Info: -99, -99
    ---> Frame rate: 29.97
    ---> Aspect ratio:

    __________________________________________________ __________________

    ffmpeg version N-46003-gfa48da1 Copyright (c) 2000-2012 the FFmpeg developers
    built on Oct 25 2012 12:37:27 with gcc 4.6.2 (GCC)
    configuration: --enable-memalign-hack --arch=x86 --target-os=mingw32 --cross-prefix=i686-w64-mingw32- --enable-static --disable-shared --enable-zlib --disable-postproc --prefix=/home/peter/ffmpeg/build/gpl --enable-libmp3lame --enable-libx264 --enable-gpl --extra-libs='-lx264 -lpthread' --enable-runtime-cpudetect --extra-cflags=-I/home/peter/cc/include --extra-ldflags=-L/home/peter/cc/lib --pkg-config=pkg-config --disable-w32threads --enable-zlib
    libavutil 52. 0.100 / 52. 0.100
    libavcodec 54. 69.100 / 54. 69.100
    libavformat 54. 34.100 / 54. 34.100
    libavdevice 54. 3.100 / 54. 3.100
    libavfilter 3. 20.105 / 3. 20.105
    libswscale 2. 1.101 / 2. 1.101
    libswresample 0. 16.100 / 0. 16.100
    Input #0, mov,mp4,m4a,3gp,3g2,mj2, from 'XXXXXXXXXXXXXXXXXXXXXXXXXXXXXXXXXX.mp4':
    Metadata:
    major_brand : isom
    minor_version : 1
    compatible_brands: isomavc1
    creation_time : 2007-09-05 09:11:25
    Duration: 00:23:11.05, start: 0.000000, bitrate: 814 kb/s
    Stream #0:0(und): Video: h264 (High) (avc1 / 0x31637661), yuv420p, 560x416, 740 kb/s, 23.98 fps, 23.98 tbr, 24k tbn, 47.95 tbc
    Metadata:
    creation_time : 2007-09-05 09:11:25
    handler_name : Video
    Stream #0:1(eng): Audio: aac (mp4a / 0x6134706D), 48000 Hz, stereo, s16, 71 kb/s
    Metadata:
    creation_time : 2007-09-05 09:11:31
    handler_name : English
    At least one output file must be specified

    <MEZZMO>: Child process ended with code: 109, ExitCode=1


    ---> DB Level Info: 51, 100
    ---> Frame rate: 23.98
    ---> Aspect ratio:

    __________________________________________________ ______________________________

    ffmpeg version N-46003-gfa48da1 Copyright (c) 2000-2012 the FFmpeg developers
    built on Oct 25 2012 12:37:27 with gcc 4.6.2 (GCC)
    configuration: --enable-memalign-hack --arch=x86 --target-os=mingw32 --cross-prefix=i686-w64-mingw32- --enable-static --disable-shared --enable-zlib --disable-postproc --prefix=/home/peter/ffmpeg/build/gpl --enable-libmp3lame --enable-libx264 --enable-gpl --extra-libs='-lx264 -lpthread' --enable-runtime-cpudetect --extra-cflags=-I/home/peter/cc/include --extra-ldflags=-L/home/peter/cc/lib --pkg-config=pkg-config --disable-w32threads --enable-zlib
    libavutil 52. 0.100 / 52. 0.100
    libavcodec 54. 69.100 / 54. 69.100
    libavformat 54. 34.100 / 54. 34.100
    libavdevice 54. 3.100 / 54. 3.100
    libavfilter 3. 20.105 / 3. 20.105
    libswscale 2. 1.101 / 2. 1.101
    libswresample 0. 16.100 / 0. 16.100
    Input #0, mov,mp4,m4a,3gp,3g2,mj2, from 'xxxxxxxxxxxxxxxxxxxxxxxxxxxxxxxxxxx.mkv':
    Metadata:
    major_brand : isom
    minor_version : 1
    compatible_brands: isomavc1
    creation_time : 2007-09-05 09:11:25
    Duration: 00:23:11.05, start: 0.000000, bitrate: 814 kb/s
    Stream #0:0(und): Video: h264 (High) (avc1 / 0x31637661), yuv420p, 560x416, 740 kb/s, 23.98 fps, 23.98 tbr, 24k tbn, 47.95 tbc
    Metadata:
    creation_time : 2007-09-05 09:11:25
    handler_name : Video
    Stream #0:1(eng): Audio: aac (mp4a / 0x6134706D), 48000 Hz, stereo, s16, 71 kb/s
    Metadata:
    creation_time : 2007-09-05 09:11:31
    handler_name : English
    At least one output file must be specified

    <MEZZMO>: Child process ended with code: 109, ExitCode=1


    ---> DB Level Info: 51, 100
    ---> Frame rate: 23.98
    ---> Aspect ratio:

    __________________________________________________ ___________________________________________

    ffmpeg version N-46003-gfa48da1 Copyright (c) 2000-2012 the FFmpeg developers
    built on Oct 25 2012 12:37:27 with gcc 4.6.2 (GCC)
    configuration: --enable-memalign-hack --arch=x86 --target-os=mingw32 --cross-prefix=i686-w64-mingw32- --enable-static --disable-shared --enable-zlib --disable-postproc --prefix=/home/peter/ffmpeg/build/gpl --enable-libmp3lame --enable-libx264 --enable-gpl --extra-libs='-lx264 -lpthread' --enable-runtime-cpudetect --extra-cflags=-I/home/peter/cc/include --extra-ldflags=-L/home/peter/cc/lib --pkg-config=pkg-config --disable-w32threads --enable-zlib
    libavutil 52. 0.100 / 52. 0.100
    libavcodec 54. 69.100 / 54. 69.100
    libavformat 54. 34.100 / 54. 34.100
    libavdevice 54. 3.100 / 54. 3.100
    libavfilter 3. 20.105 / 3. 20.105
    libswscale 2. 1.101 / 2. 1.101
    libswresample 0. 16.100 / 0. 16.100
    Input #0, mov,mp4,m4a,3gp,3g2,mj2, from 'xxxxxxxxxxxxxxx.mp4':
    Metadata:
    major_brand : mp42
    minor_version : 0
    compatible_brands: mp42isomavc1
    creation_time : 2013-01-26 22:04:00
    encoder : HandBrake 0.9.8 2012071700
    Duration: 01:36:18.11, start: 0.000000, bitrate: 1113 kb/s
    Stream #0:0(und): Video: h264 (High) (avc1 / 0x31637661), yuv420p, 720x480 [SAR 32:27 DAR 16:9], 948 kb/s, 23.96 fps, 60 tbr, 90k tbn, 180k tbc
    Metadata:
    creation_time : 2013-01-26 22:04:00
    Stream #0:1(eng): Audio: ac3 (ac-3 / 0x332D6361), 48000 Hz, stereo, s16, 160 kb/s
    Metadata:
    creation_time : 2013-01-26 22:04:00
    At least one output file must be specified

    <MEZZMO>: Child process ended with code: 109, ExitCode=1


    ---> DB Level Info: 31, 100
    ---> Frame rate: 23.96
    ---> Aspect ratio: 16:9



    A long habit of not thinking a thing wrong, gives it a superficial appearance of being right, and raises at first a formidable outcry in defense of custom.

    - Thomas Payne

  2. #2
    Join Date
    Nov 2007
    Location
    Melbourne, Australia
    Posts
    11,616

    Default

    Hi Mark,

    Sorry for the troubles. We have fixed the Sony SMP issues, so contact us at support [at] conceiva [dot] com for an updated set of Sony SMP device profiles.

    Regarding your Samsung BDP, we've just re-tested Mezzmo v3.0 with our Samsung BDP and all formats that we tested (AVI, MKV, MP4, etc.) stream fine. Can you email us a set of logs when you connect & try streaming to your Samsung BDP. That will help us know what the problem is & fix it quickly.

    Mezzmo Android: Install it on your tablet, smartphone, Android TV or Amazon Fire to browse and stream files from your Mezzmo library to all your devices. Full details at http://www.conceiva.com/products/mez...mo_android.asp
    Mezzmo for Kodi Add-on: Install it into Kodi to stream files from your Mezzmo library directly in Kodi. Full details at http://www.mezzmo.com/wiki/doku.php?...odi_user_guide
    Mezzmo for Roku App: Install it onto your Roku to stream files from your Mezzmo library. Full details at http://www.mezzmo.com/wiki/doku.php?...oku_user_guide
    Wiki: User Guides & Reference Manual at http://www.mezzmo.com/wiki
    Facebook: http://www.facebook.com/Mezzmo.DLNA.Server
    Twitter: https://twitter.com/conceiva_mezzmo
    Web: http://www.mezzmo.com

  3. #3
    Join Date
    Mar 2011
    Posts
    70

    Default

    Quote Originally Posted by Paul View Post
    Hi Mark,

    Sorry for the troubles. We have fixed the Sony SMP issues, so contact us at support [at] conceiva [dot] com for an updated set of Sony SMP device profiles.

    Regarding your Samsung BDP, we've just re-tested Mezzmo v3.0 with our Samsung BDP and all formats that we tested (AVI, MKV, MP4, etc.) stream fine. Can you email us a set of logs when you connect & try streaming to your Samsung BDP. That will help us know what the problem is & fix it quickly.
    I will send the e-mail for the SMP fixes. It will take me a day or so to get to the logs for the Samsung device. As time permits, I am going to go through all of my devices and check. I see some android issues in these forums that I need to check for myself.

    I hope you guys can understand the frustration. I did not volunteer for v 3.0 beta testing because I did/do not have time to test all of my devices. I would appreciate just being able to use Mezzmo and have it work.



    A long habit of not thinking a thing wrong, gives it a superficial appearance of being right, and raises at first a formidable outcry in defense of custom.

    - Thomas Payne

  4. #4
    Join Date
    Nov 2007
    Location
    Melbourne, Australia
    Posts
    11,616

    Default

    Hi Mark,

    Sorry for the frustration & we've tried real hard to minimize this type of problem with a public Beta test for the past month, where 100+ users tested Mezzmo with their devices. Even so, this problem slipped through to the release so we'll continue to try to improve our QA.

    Reports from other Sony BDP & SMP owners is that the fix does work & they are up and running again. We will add it to a minor Mezzmo update that we are preparing now & expect to release later this week.

    Mezzmo Android: Install it on your tablet, smartphone, Android TV or Amazon Fire to browse and stream files from your Mezzmo library to all your devices. Full details at http://www.conceiva.com/products/mez...mo_android.asp
    Mezzmo for Kodi Add-on: Install it into Kodi to stream files from your Mezzmo library directly in Kodi. Full details at http://www.mezzmo.com/wiki/doku.php?...odi_user_guide
    Mezzmo for Roku App: Install it onto your Roku to stream files from your Mezzmo library. Full details at http://www.mezzmo.com/wiki/doku.php?...oku_user_guide
    Wiki: User Guides & Reference Manual at http://www.mezzmo.com/wiki
    Facebook: http://www.facebook.com/Mezzmo.DLNA.Server
    Twitter: https://twitter.com/conceiva_mezzmo
    Web: http://www.mezzmo.com

Similar Threads

  1. Major stuttering with Mezzmo 2.7.1.0
    By Dazzler in forum Mezzmo Questions and Support
    Replies: 9
    Last Post: 10-26-2012, 09:34 AM
  2. Device Profile User Documentation - How To Guide to creating/editing device profiles
    By freebird614 in forum Mezzmo Wish List and Feedback
    Replies: 2
    Last Post: 06-25-2012, 09:09 AM
  3. Major limits in the Library tree
    By Rainey in forum Mezzmo Questions and Support
    Replies: 6
    Last Post: 12-28-2011, 11:32 AM
  4. Next major release date?
    By cabsandy in forum Mezzmo Questions and Support
    Replies: 11
    Last Post: 06-20-2011, 03:14 PM
  5. Major problems - streaming AND player
    By visionOn in forum Mezzmo Questions and Support
    Replies: 5
    Last Post: 03-08-2008, 03:23 AM

Tags for this Thread

Bookmarks

Posting Permissions

  • You may not post new threads
  • You may not post replies
  • You may not post attachments
  • You may not edit your posts
  •