Results 1 to 5 of 5

Thread: Unable to transcode audio livbrary

  1. #1
    Join Date
    Mar 2013
    Posts
    2

    Default Unable to transcode audio livbrary

    I have two audio library attached to Mezzmo. One library content is FLAC audio files, the other is Apple Lossless files. When I try to run the conversion to convert these files as MP3 for my Xbox the conversion failed with the message:

    Unable to find a suitable output format for 'd:\Users\Xavier\AppData\Local\Conceiva\Mezzmo\Tra nscodingFiles\73DBA4DC-58B6-4754-857D-D35FA5E058D4\Audio\43843-mp3-0-libmp3lame.mzt'

    Here is the log from one file:



    C:\Program Files (x86)\Conceiva\Mezzmo\ffmpeg.exe -y -i "d:\Users\Xavier\Apple Lossless\4Element\Duplicity\01-Intifada.m4a" -map 0:a:0 -c:a:0 libmp3lame -ac 2 -ab 320000 -ar 44100 -sn "d:\Users\Xavier\AppData\Local\Conceiva\Mezzmo\Tra nscodingFiles\73DBA4DC-58B6-4754-857D-D35FA5E058D4\Audio\43843-mp3-0-libmp3lame.mzt"

    ffmpeg version N-46003-gfa48da1 Copyright (c) 2000-2012 the FFmpeg developers
    built on Oct 25 2012 12:37:27 with gcc 4.6.2 (GCC)
    configuration: --enable-memalign-hack --arch=x86 --target-os=mingw32 --cross-prefix=i686-w64-mingw32- --enable-static --disable-shared --enable-zlib --disable-postproc --prefix=/home/peter/ffmpeg/build/gpl --enable-libmp3lame --enable-libx264 --enable-gpl --extra-libs='-lx264 -lpthread' --enable-runtime-cpudetect --extra-cflags=-I/home/peter/cc/include --extra-ldflags=-L/home/peter/cc/lib --pkg-config=pkg-config --disable-w32threads --enable-zlib
    libavutil 52. 0.100 / 52. 0.100
    libavcodec 54. 69.100 / 54. 69.100
    libavformat 54. 34.100 / 54. 34.100
    libavdevice 54. 3.100 / 54. 3.100
    libavfilter 3. 20.105 / 3. 20.105
    libswscale 2. 1.101 / 2. 1.101
    libswresample 0. 16.100 / 0. 16.100
    [mov,mp4,m4a,3gp,3g2,mj2 @ 01afaf40] max_analyze_duration 5000000 reached at 5015510
    Input #0, mov,mp4,m4a,3gp,3g2,mj2, from 'd:\Users\Xavier\Apple Lossless\4Element\Duplicity\01-Intifada.m4a':
    Metadata:
    major_brand : M4A
    minor_version : 0
    compatible_brands: M4A mp42isom
    album : Duplicity
    album_artist : 4Element
    artist : 4Element
    genre : Rock
    title : Intifada
    track : 1
    season_number : 0
    episode_sort : 0
    disc : 0
    media_type : 0
    Duration: 00:06:43.70, start: 0.000000, bitrate: 987 kb/s
    Stream #0:0(eng): Audio: alac (alac / 0x63616C61), 44100 Hz, stereo, s16, 985 kb/s
    Stream #0:1: Video: mjpeg, yuvj420p, 342x342 [SAR 72:72 DAR 1:1], 90k tbr, 90k tbn, 90k tbc
    [NULL @ 035408c0] Unable to find a suitable output format for 'd:\Users\Xavier\AppData\Local\Conceiva\Mezzmo\Tra nscodingFiles\73DBA4DC-58B6-4754-857D-D35FA5E058D4\Audio\43843-mp3-0-libmp3lame.mzt'
    d:\Users\Xavier\AppData\Local\Conceiva\Mezzmo\Tran scodingFiles\73DBA4DC-58B6-4754-857D-D35FA5E058D4\Audio\43843-mp3-0-libmp3lame.mzt: Invalid argument

    <MEZZMO>: Child process ended with code: 109, ExitCode=1
    ffmpeg version N-46003-gfa48da1 Copyright (c) 2000-2012 the FFmpeg developers
    built on Oct 25 2012 12:37:27 with gcc 4.6.2 (GCC)
    configuration: --enable-memalign-hack --arch=x86 --target-os=mingw32 --cross-prefix=i686-w64-mingw32- --enable-static --disable-shared --enable-zlib --disable-postproc --prefix=/home/peter/ffmpeg/build/gpl --enable-libmp3lame --enable-libx264 --enable-gpl --extra-libs='-lx264 -lpthread' --enable-runtime-cpudetect --extra-cflags=-I/home/peter/cc/include --extra-ldflags=-L/home/peter/cc/lib --pkg-config=pkg-config --disable-w32threads --enable-zlib
    libavutil 52. 0.100 / 52. 0.100
    libavcodec 54. 69.100 / 54. 69.100
    libavformat 54. 34.100 / 54. 34.100
    libavdevice 54. 3.100 / 54. 3.100
    libavfilter 3. 20.105 / 3. 20.105
    libswscale 2. 1.101 / 2. 1.101
    libswresample 0. 16.100 / 0. 16.100
    [mov,mp4,m4a,3gp,3g2,mj2 @ 0188af40] max_analyze_duration 5000000 reached at 5015510
    Input #0, mov,mp4,m4a,3gp,3g2,mj2, from 'd:\Users\Xavier\Apple Lossless\4Element\Duplicity\01-Intifada.m4a':
    Metadata:
    major_brand : M4A
    minor_version : 0
    compatible_brands: M4A mp42isom
    album : Duplicity
    album_artist : 4Element
    artist : 4Element
    genre : Rock
    title : Intifada
    track : 1
    season_number : 0
    episode_sort : 0
    disc : 0
    media_type : 0
    Duration: 00:06:43.70, start: 0.000000, bitrate: 987 kb/s
    Stream #0:0(eng): Audio: alac (alac / 0x63616C61), 44100 Hz, stereo, s16, 985 kb/s
    Stream #0:1: Video: mjpeg, yuvj420p, 342x342 [SAR 72:72 DAR 1:1], 90k tbr, 90k tbn, 90k tbc
    [NULL @ 032108c0] Unable to find a suitable output format for 'd:\Users\Xavier\AppData\Local\Conceiva\Mezzmo\Tra nscodingFiles\73DBA4DC-58B6-4754-857D-D35FA5E058D4\Audio\43843-mp3-0-libmp3lame.mzt'
    d:\Users\Xavier\AppData\Local\Conceiva\Mezzmo\Tran scodingFiles\73DBA4DC-58B6-4754-857D-D35FA5E058D4\Audio\43843-mp3-0-libmp3lame.mzt: Invalid argument

    <MEZZMO>: Child process ended with code: 109, ExitCode=1

  2. #2
    Join Date
    Sep 2009
    Posts
    1,959

    Default

    Hi,
    we have an updated device profile to resolve this, please send an email to support [at] conceiva [dot] com and we will send you the profile.

    Mezzmo Android: Install it on your tablet, smartphone, Android TV or Amazon Fire to browse and stream files from your Mezzmo library to all your devices. Full details at http://www.conceiva.com/products/mez...mo_android.asp
    Mezzmo for Kodi Add-on: Install it into Kodi to stream files from your Mezzmo library directly in Kodi. Full details at http://www.mezzmo.com/wiki/doku.php?...odi_user_guide
    Mezzmo for Roku App: Install it onto your Roku to stream files from your Mezzmo library. Full details at http://www.mezzmo.com/wiki/doku.php?...oku_user_guide
    Wiki: User Guides & Reference Manual at http://www.mezzmo.com/wiki
    Facebook: http://www.facebook.com/Mezzmo.DLNA.Server
    Twitter: https://twitter.com/conceiva_mezzmo
    Web: http://www.mezzmo.com

  3. #3
    Join Date
    Nov 2010
    Location
    Perth, Australia
    Posts
    27

    Default

    Hi Peter,

    I'm also having problems transcoding some (but not all) MP3 files to an iPhone 5 and Ipad 3. I'm using the 8player app on both devices and using Mariia Smeshkova device profile.

    Would the above updated device profile also assist me?

    Here's the error log

    C:\Program Files (x86)\Conceiva\Mezzmo\ffmpeg.exe -y -i "D:\My Music\Music\Pet Shop Boys\2012\Music\Leaving (MP3s)\01. Leaving.mp3" -map 0:a:0 -c:a:0 libmp3lame -ac 2 -ab 128000 -ar 44100 -sn "D:\Mezzmo Data\TranscodingFiles\13258AE0-93DE-42b2-9083-49AC651BFEB5\Audio\20743-mp3-0-libmp3lame.mzt"

    ffmpeg version N-46003-gfa48da1 Copyright (c) 2000-2012 the FFmpeg developers
    built on Oct 25 2012 12:37:27 with gcc 4.6.2 (GCC)
    configuration: --enable-memalign-hack --arch=x86 --target-os=mingw32 --cross-prefix=i686-w64-mingw32- --enable-static --disable-shared --enable-zlib --disable-postproc --prefix=/home/peter/ffmpeg/build/gpl --enable-libmp3lame --enable-libx264 --enable-gpl --extra-libs='-lx264 -lpthread' --enable-runtime-cpudetect --extra-cflags=-I/home/peter/cc/include --extra-ldflags=-L/home/peter/cc/lib --pkg-config=pkg-config --disable-w32threads --enable-zlib
    libavutil 52. 0.100 / 52. 0.100
    libavcodec 54. 69.100 / 54. 69.100
    libavformat 54. 34.100 / 54. 34.100
    libavdevice 54. 3.100 / 54. 3.100
    libavfilter 3. 20.105 / 3. 20.105
    libswscale 2. 1.101 / 2. 1.101
    libswresample 0. 16.100 / 0. 16.100
    [mp3 @ 017eb0c0] max_analyze_duration 5000000 reached at 5015510
    Input #0, mp3, from 'D:\My Music\Music\Pet Shop Boys\2012\Music\Leaving (MP3s)\01. Leaving.mp3':
    Metadata:
    album_artist : Pet Shop Boys
    artist : Pet Shop Boys
    album : Leaving (CDS)
    track : 01
    title : Leaving
    date : 2012
    Duration: 00:03:50.29, start: 0.000000, bitrate: 322 kb/s
    Stream #0:0: Audio: mp3, 44100 Hz, stereo, s16, 320 kb/s
    Stream #0:1: Video: mjpeg, yuvj420p, 448x448 [SAR 1:1 DAR 1:1], 90k tbr, 90k tbn, 90k tbc
    Metadata:
    title :
    comment : Cover (front)
    [NULL @ 01e39fe0] Unable to find a suitable output format for 'D:\Mezzmo Data\TranscodingFiles\13258AE0-93DE-42b2-9083-49AC651BFEB5\Audio\20743-mp3-0-libmp3lame.mzt'
    D:\Mezzmo Data\TranscodingFiles\13258AE0-93DE-42b2-9083-49AC651BFEB5\Audio\20743-mp3-0-libmp3lame.mzt: Invalid argument

    <MEZZMO>: Child process ended with code: 109, ExitCode=1

  4. #4
    Join Date
    Nov 2007
    Location
    Melbourne, Australia
    Posts
    11,616

    Default

    Would the above updated device profile also assist me?
    Yes - email us at support [at] conceiva [dot] com for the patch.

    Mezzmo Android: Install it on your tablet, smartphone, Android TV or Amazon Fire to browse and stream files from your Mezzmo library to all your devices. Full details at http://www.conceiva.com/products/mez...mo_android.asp
    Mezzmo for Kodi Add-on: Install it into Kodi to stream files from your Mezzmo library directly in Kodi. Full details at http://www.mezzmo.com/wiki/doku.php?...odi_user_guide
    Mezzmo for Roku App: Install it onto your Roku to stream files from your Mezzmo library. Full details at http://www.mezzmo.com/wiki/doku.php?...oku_user_guide
    Wiki: User Guides & Reference Manual at http://www.mezzmo.com/wiki
    Facebook: http://www.facebook.com/Mezzmo.DLNA.Server
    Twitter: https://twitter.com/conceiva_mezzmo
    Web: http://www.mezzmo.com

  5. #5
    Join Date
    Nov 2010
    Location
    Perth, Australia
    Posts
    27

    Default

    Thanks Paul.

    Email sent

Similar Threads

  1. Replies: 3
    Last Post: 12-06-2012, 07:50 AM
  2. How to Setup Transcoding to NOT Transcode On-The-Fly but ONLY Transcode Manuallly?
    By stevefoobar in forum Mezzmo Questions and Support
    Replies: 6
    Last Post: 10-22-2012, 05:03 PM
  3. Transcoding: list devices and transcode state - option to pre-transcode
    By Dillster in forum Mezzmo Wish List and Feedback
    Replies: 13
    Last Post: 01-06-2012, 05:30 PM
  4. Possible to only transcode audio?
    By tekiusfanatikus in forum Mezzmo Questions and Support
    Replies: 1
    Last Post: 04-27-2011, 10:35 AM
  5. first start transcode, second start no transcode of MKV file?
    By djvdgalien in forum Mezzmo Questions and Support
    Replies: 5
    Last Post: 01-20-2011, 09:35 AM

Tags for this Thread

Bookmarks

Posting Permissions

  • You may not post new threads
  • You may not post replies
  • You may not post attachments
  • You may not edit your posts
  •