Results 1 to 7 of 7

Thread: Unable to use FF/REW

  1. #1
    Join Date
    Mar 2013
    Posts
    4

    Default Unable to use FF/REW

    Hi,

    I'm using Mezzmo 3.1 (Registered version) in Windows 8 OS. My TV is a Samsung UE46ES8000.

    My TV is unable to use FF/REW.

    Thank you in advance.

  2. #2
    Join Date
    Nov 2007
    Location
    Melbourne, Australia
    Posts
    11,616

    Default

    Hi Miguel,

    Please tell us the FFmpeg information on one of the videos you are trying to FF/REW. Right-click on the video in Mezzmo and click 'Get FFmpeg Information'.

    Also, tell us the device profile assigned to your TV in Mezzmo. Go to the Media Devices dialog to see this.

    Mezzmo Android: Install it on your tablet, smartphone, Android TV or Amazon Fire to browse and stream files from your Mezzmo library to all your devices. Full details at http://www.conceiva.com/products/mez...mo_android.asp
    Mezzmo for Kodi Add-on: Install it into Kodi to stream files from your Mezzmo library directly in Kodi. Full details at http://www.mezzmo.com/wiki/doku.php?...odi_user_guide
    Mezzmo for Roku App: Install it onto your Roku to stream files from your Mezzmo library. Full details at http://www.mezzmo.com/wiki/doku.php?...oku_user_guide
    Wiki: User Guides & Reference Manual at http://www.mezzmo.com/wiki
    Facebook: http://www.facebook.com/Mezzmo.DLNA.Server
    Twitter: https://twitter.com/conceiva_mezzmo
    Web: http://www.mezzmo.com

  3. #3
    Join Date
    Mar 2013
    Posts
    4

    Default

    ffmpeg version N-50460-g393dcbf Copyright (c) 2000-2013 the FFmpeg developers
    built on Mar 4 2013 17:38:17 with gcc 4.6.2 (GCC)
    configuration: --enable-memalign-hack --arch=x86 --target-os=mingw32 --cross-prefix=i686-w64-mingw32- --enable-static --disable-shared --enable-zlib --disable-postproc --prefix=/home/peter/ffmpeg/build/gpl --enable-libmp3lame --enable-libx264 --enable-gpl --extra-libs='-lx264 -lpthread' --enable-runtime-cpudetect --extra-cflags=-I/home/peter/cc/include --extra-ldflags=-L/home/peter/cc/lib --pkg-config=pkg-config --disable-w32threads --enable-zlib
    libavutil 52. 17.103 / 52. 17.103
    libavcodec 54. 92.100 / 54. 92.100
    libavformat 54. 63.102 / 54. 63.102
    libavdevice 54. 3.103 / 54. 3.103
    libavfilter 3. 41.100 / 3. 41.100
    libswscale 2. 2.100 / 2. 2.100
    libswresample 0. 17.102 / 0. 17.102
    [avi @ 0003e200] non-interleaved AVI
    Input #0, avi, from 'U:\Series III\Star Trek\[Peliculas]\08 First Contact.avi':
    Metadata:
    encoder : VirtualDubMod 1.5.4.1 (build 2178/release)
    IAS1 : Espanol
    IAS2 : English
    Duration: 01:46:09.60, start: 0.000000, bitrate: 1966 kb/s
    Stream #0:0: Video: mpeg4 (DX50 / 0x30355844), yuv420p, 720x304 [SAR 1:1 DAR 45:19], 25 fps, 25 tbr, 25 tbn, 30k tbc
    Stream #0:1: Audio: mp3 (U[0][0][0] / 0x0055), 48000 Hz, stereo, s16p, 128 kb/s
    Stream #0:2: Audio: mp3 (U[0][0][0] / 0x0055), 48000 Hz, stereo, s16p, 128 kb/s
    At least one output file must be specified

    <MEZZMO>: Child process ended with code: 109, ExitCode=1


    ---> DB Level Info: -99, -99
    ---> Frame rate: 25,00
    ---> Aspect ratio: 45:19

  4. #4
    Join Date
    Nov 2007
    Location
    Melbourne, Australia
    Posts
    11,616

    Default

    Thanks Miguel. What device profile are you using? Go to the Media Devices dialog to see this.

    Mezzmo Android: Install it on your tablet, smartphone, Android TV or Amazon Fire to browse and stream files from your Mezzmo library to all your devices. Full details at http://www.conceiva.com/products/mez...mo_android.asp
    Mezzmo for Kodi Add-on: Install it into Kodi to stream files from your Mezzmo library directly in Kodi. Full details at http://www.mezzmo.com/wiki/doku.php?...odi_user_guide
    Mezzmo for Roku App: Install it onto your Roku to stream files from your Mezzmo library. Full details at http://www.mezzmo.com/wiki/doku.php?...oku_user_guide
    Wiki: User Guides & Reference Manual at http://www.mezzmo.com/wiki
    Facebook: http://www.facebook.com/Mezzmo.DLNA.Server
    Twitter: https://twitter.com/conceiva_mezzmo
    Web: http://www.mezzmo.com

  5. #5
    Join Date
    Mar 2013
    Posts
    4

    Default

    Device Profile: 'Samsung E'

  6. #6
    Join Date
    Mar 2013
    Posts
    4

    Default

    is there someone here???

  7. #7
    Join Date
    Nov 2007
    Location
    Melbourne, Australia
    Posts
    11,616

    Default

    Sorry for the long delay, Miguel. Mezzmo is streaming your AVI directly to your TV. Samsung TV's do not let you FF/REW using their remote control buttons when streaming via DLNA. This is a restriction in the TV's firmware. Later model Samsung TV models (D-series and E-series - like yours) have much better time search features than the older A/B/C-series TVs. On your E-series TV, when you are playing a video, press the Tools button on your remote control and use the Time Search feature to navigate to any part of the video that you want. That should allow you to quickly jump to sections in the video.

    Mezzmo Android: Install it on your tablet, smartphone, Android TV or Amazon Fire to browse and stream files from your Mezzmo library to all your devices. Full details at http://www.conceiva.com/products/mez...mo_android.asp
    Mezzmo for Kodi Add-on: Install it into Kodi to stream files from your Mezzmo library directly in Kodi. Full details at http://www.mezzmo.com/wiki/doku.php?...odi_user_guide
    Mezzmo for Roku App: Install it onto your Roku to stream files from your Mezzmo library. Full details at http://www.mezzmo.com/wiki/doku.php?...oku_user_guide
    Wiki: User Guides & Reference Manual at http://www.mezzmo.com/wiki
    Facebook: http://www.facebook.com/Mezzmo.DLNA.Server
    Twitter: https://twitter.com/conceiva_mezzmo
    Web: http://www.mezzmo.com

Similar Threads

  1. unable to serve media from external hdd
    By firelynx in forum Mezzmo Questions and Support
    Replies: 4
    Last Post: 05-21-2012, 11:54 AM
  2. Unable to Browse Photos
    By Max_Mose in forum Mezzmo Questions and Support
    Replies: 4
    Last Post: 11-28-2011, 01:54 PM
  3. Unable to play this clip
    By moondial in forum Mezzmo Questions and Support
    Replies: 3
    Last Post: 11-02-2011, 08:54 AM
  4. Unable to play MKV in Mezzmo UI
    By bbear in forum Mezzmo Questions and Support
    Replies: 2
    Last Post: 01-27-2011, 02:32 PM
  5. Unable to use mezzmo with panasonic blu-ray
    By Nightwisher in forum Mezzmo Questions and Support
    Replies: 2
    Last Post: 06-18-2010, 10:08 PM

Tags for this Thread

Bookmarks

Posting Permissions

  • You may not post new threads
  • You may not post replies
  • You may not post attachments
  • You may not edit your posts
  •