Results 1 to 2 of 2

Thread: PS3 mkv file error - data type is not supported

  1. #1
    Join Date
    Jul 2010
    Posts
    1

    Default PS3 mkv file error - data type is not supported

    Just installed version 2.1.8 and noticed that some mkv files, when played, will blank out my TV screen for about 30 seconds then my PS3 will display "The data type is not supported" and then show the file as "Unsupported Data". I have my PS3 set up in Mezzmo as a "Sony PlayStation 3" media device with default settings. I have default settings for my Transcoding Settings.

    When I select Information of the video file within my PS3 it shows the Resolution as "720 x 576" and the Video Codec as "MPEG-2 4.0 Mbps". All my mkv files that have that Video Codec will not play. I've tried setting the Video Bitrate in Mezzmo for the Sony Playstation 3 media device to the lowest level but no luck. Any help would be appreciated!

    BTW, here's the FFmpeg info via Mezzmo for one of the mkv files.

    FFmpeg version SVN-r24378, Copyright (c) 2000-2010 the FFmpeg developers
    built on Jul 21 2010 12:51:48 with gcc 4.4.0
    configuration: --enable-static --disable-shared --enable-memalign-hack --enable-libmp3lame --extra-cflags=-I/c/msys/local/include --extra-ldflags=-L/c/msys/local/lib --enable-zlib --enable-w32threads --extra-cflags=-fno-common --enable-gpl --enable-libx264 --disable-ffplay --disable-ffprobe --disable-ffserver --enable-postproc --enable-runtime-cpudetect --extra-cflags=-U__STRICT_ANSI__
    libavutil 50.22. 0 / 50.22. 0
    libavcodec 52.84. 0 / 52.84. 0
    libavformat 52.76. 0 / 52.76. 0
    libavdevice 52. 2. 0 / 52. 2. 0
    libavfilter 1.25. 1 / 1.25. 1
    libswscale 0.11. 0 / 0.11. 0
    libpostproc 51. 2. 0 / 51. 2. 0
    [matroska @ 0003e940] Estimating duration from bitrate, this may be inaccurate
    Input #0, matroska, from '<removed>':
    Duration: 00:21:25.37, start: 0.000000, bitrate: N/A
    Stream #0.0(eng): Video: h264, yuv420p, 720x576, PAR 1:1 DAR 5:4, 25 fps, 25 tbr, 1k tbn, 50 tbc
    Stream #0.1: Audio: aac, 48000 Hz, 2 channels (FC), s16
    Stream #0.2: Audio: aac, 48000 Hz, 2 channels (FC), s16
    At least one output file must be specified
    Last edited by code2; 07-31-2010 at 04:33 AM.

  2. #2
    Join Date
    Nov 2007
    Location
    Melbourne, Australia
    Posts
    11,616

    Default

    We have an updated device profile for the PS3 that will transcode such files to AVC (much quicker and higher-def, since video is not re-coded). Please send a message to support (at) conceiva (dot) com and I'll send you an updated device profile to try.

    Mezzmo Android: Install it on your tablet, smartphone, Android TV or Amazon Fire to browse and stream files from your Mezzmo library to all your devices. Full details at http://www.conceiva.com/products/mez...mo_android.asp
    Mezzmo for Kodi Add-on: Install it into Kodi to stream files from your Mezzmo library directly in Kodi. Full details at http://www.mezzmo.com/wiki/doku.php?...odi_user_guide
    Mezzmo for Roku App: Install it onto your Roku to stream files from your Mezzmo library. Full details at http://www.mezzmo.com/wiki/doku.php?...oku_user_guide
    Wiki: User Guides & Reference Manual at http://www.mezzmo.com/wiki
    Facebook: http://www.facebook.com/Mezzmo.DLNA.Server
    Twitter: https://twitter.com/conceiva_mezzmo
    Web: http://www.mezzmo.com

Tags for this Thread

Bookmarks

Posting Permissions

  • You may not post new threads
  • You may not post replies
  • You may not post attachments
  • You may not edit your posts
  •