Results 1 to 2 of 2

Thread: some problems with Panasonic TX-P65VT50E

  1. #1
    Join Date
    May 2013
    Posts
    1

    Default some problems with Panasonic TX-P65VT50E

    hi,

    I have 3 problems - I hope someone is able to help me:


    1. mezzmo
    sometimes i can't find mezzmo on the tv. the routine to find mezzmo on the tv is - at first i have to start the tv and afterwards mezzmo.
    if i can't find mezzmo, i have to stop and start the mediaserver new, then mezzmo is available on the tv again .

    2. mp4-file
    i have one mp4-file which doesn't work. after 3min and 30sec, mezzmo stops the file and starts the next one in a row. (transcoding is off)

    here is the log-file:

    ffmpeg version N-50460-g393dcbf Copyright (c) 2000-2013 the FFmpeg developers
    built on Mar 4 2013 17:38:17 with gcc 4.6.2 (GCC)
    configuration: --enable-memalign-hack --arch=x86 --target-os=mingw32 --cross-prefix=i686-w64-mingw32- --enable-static --disable-shared --enable-zlib --disable-postproc --prefix=/home/peter/ffmpeg/build/gpl --enable-libmp3lame --enable-libx264 --enable-gpl --extra-libs='-lx264 -lpthread' --enable-runtime-cpudetect --extra-cflags=-I/home/peter/cc/include --extra-ldflags=-L/home/peter/cc/lib --pkg-config=pkg-config --disable-w32threads --enable-zlib
    libavutil 52. 17.103 / 52. 17.103
    libavcodec 54. 92.100 / 54. 92.100
    libavformat 54. 63.102 / 54. 63.102
    libavdevice 54. 3.103 / 54. 3.103
    libavfilter 3. 41.100 / 3. 41.100
    libswscale 2. 2.100 / 2. 2.100
    libswresample 0. 17.102 / 0. 17.102
    [mov,mp4,m4a,3gp,3g2,mj2 @ 003df740] CTTS invalid
    Input #0, mov,mp4,m4a,3gp,3g2,mj2, from 'D:\shares\Videos\Filme\Iron Man\Iron Man.mp4':
    Metadata:
    major_brand : mp42
    minor_version : 0
    compatible_brands: mp42isom
    creation_time : 2013-03-07 18:28:59
    Duration: 02:05:57.32, start: 0.000000, bitrate: 6172 kb/s
    Stream #0:0(und): Video: h264 (High) (avc1 / 0x31637661), yuv420p, 1280x528, 5946 kb/s, 23.98 fps, 23.98 tbr, 90k tbn, 47.95 tbc
    Metadata:
    creation_time : 2013-03-07 18:28:59
    Stream #0:1(und): Audio: aac (mp4a / 0x6134706D), 48000 Hz, 5.1, fltp, 221 kb/s
    Metadata:
    creation_time : 2013-03-07 18:28:59
    At least one output file must be specified

    <MEZZMO>: Child process ended with code: 109, ExitCode=1


    ---> DB Level Info: 41, 100
    ---> Frame rate: 23,98
    ---> Aspect ratio:


    3. m2ts-file
    m2ts-files work but there is no audio signal

    one log-file for example:

    ffmpeg version N-50460-g393dcbf Copyright (c) 2000-2013 the FFmpeg developers
    built on Mar 4 2013 17:38:17 with gcc 4.6.2 (GCC)
    configuration: --enable-memalign-hack --arch=x86 --target-os=mingw32 --cross-prefix=i686-w64-mingw32- --enable-static --disable-shared --enable-zlib --disable-postproc --prefix=/home/peter/ffmpeg/build/gpl --enable-libmp3lame --enable-libx264 --enable-gpl --extra-libs='-lx264 -lpthread' --enable-runtime-cpudetect --extra-cflags=-I/home/peter/cc/include --extra-ldflags=-L/home/peter/cc/lib --pkg-config=pkg-config --disable-w32threads --enable-zlib
    libavutil 52. 17.103 / 52. 17.103
    libavcodec 54. 92.100 / 54. 92.100
    libavformat 54. 63.102 / 54. 63.102
    libavdevice 54. 3.103 / 54. 3.103
    libavfilter 3. 41.100 / 3. 41.100
    libswscale 2. 2.100 / 2. 2.100
    libswresample 0. 17.102 / 0. 17.102
    [mpegts @ 003df800] max_analyze_duration 60000000 reached at 60000000 microseconds
    [mpegts @ 003df800] Could not find codec parameters for stream 2 (Subtitle: hdmv_pgs_subtitle ([144][0][0][0] / 0x0090)): unspecified size
    Consider increasing the value for the 'analyzeduration' and 'probesize' options
    [NULL @ 01e6eb00] start time is not set in estimate_timings_from_pts
    Input #0, mpegts, from 'D:\shares\Videos\Filme\Star Wars (Episode I-VI)\Star Wars Episode I - Die Dunkle Bedrohung (1999).m2ts':
    Duration: 02:16:10.95, start: 599.958300, bitrate: 3633 kb/s
    Program 1
    Stream #0:0[0x1011]: Video: h264 (High) ([27][0][0][0] / 0x001B), yuv420p, 1280x544 [SAR 1:1 DAR 40:17], 23.98 fps, 23.98 tbr, 90k tbn, 47.95 tbc
    Stream #0:1[0x1100](deu): Audio: dts (DTS) ([130][0][0][0] / 0x0082), 48000 Hz, 5.1(side), fltp, 1536 kb/s
    Stream #0:2[0x1200](deu): Subtitle: hdmv_pgs_subtitle ([144][0][0][0] / 0x0090)
    At least one output file must be specified

    <MEZZMO>: Child process ended with code: 109, ExitCode=1


    ---> DB Level Info: 41, 100
    ---> Frame rate: 23,98
    ---> Aspect ratio: 40:17

    i use Panasonic Viera (2011 models) profile

    i hope this isn't too much information for one post.

    thanks a lot for your help

  2. #2
    Join Date
    Nov 2007
    Location
    Melbourne, Australia
    Posts
    11,616

    Default

    Hi yoshi,

    Some answers:

    1. What version of Mezzmo are you running? If not the current version (v3.2.0.0), then please upgrade to this version. If no better, then it seems something on your home network may be blocking DLNA communication. Typically this will be your router or firewall. Read this FAQ and it will help - http://forum.conceiva.com/showthread...ur-DLNA-device

    2. With transcoding turned off, Mezzmo server is streaming the MP4 video directly to your TV. If your TV stops playing the video, then it may mean that the MP4 is badly encoded or encoded in such a way that it cannot play it further - so your TV gives up and proceeds to the next file. A workaround for this is to pre-transcode the MP4 file to another format and this may fix any encoding issues. Right-click on the video in Mezzmo and click 'Pre-transcode Files'.

    3. Your TV may not be able to decode & play the DTS audio channel in the video so that's why no audio is heard. If you turn on transcoding in Mezzmo, then using the "Panasonic Viera (2011 models)" device profile, Mezzmo server will transcode the DTS audio channel to AC3. That may fix your audio for you.

    Mezzmo Android: Install it on your tablet, smartphone, Android TV or Amazon Fire to browse and stream files from your Mezzmo library to all your devices. Full details at http://www.conceiva.com/products/mez...mo_android.asp
    Mezzmo for Kodi Add-on: Install it into Kodi to stream files from your Mezzmo library directly in Kodi. Full details at http://www.mezzmo.com/wiki/doku.php?...odi_user_guide
    Mezzmo for Roku App: Install it onto your Roku to stream files from your Mezzmo library. Full details at http://www.mezzmo.com/wiki/doku.php?...oku_user_guide
    Wiki: User Guides & Reference Manual at http://www.mezzmo.com/wiki
    Facebook: http://www.facebook.com/Mezzmo.DLNA.Server
    Twitter: https://twitter.com/conceiva_mezzmo
    Web: http://www.mezzmo.com

Similar Threads

  1. Problems with Panasonic DMP-BDT220
    By zarquon in forum Mezzmo Questions and Support
    Replies: 1
    Last Post: 08-28-2012, 10:07 AM
  2. Panasonic Viera TC-L32E3 Transcode Problems
    By akirchwey in forum Mezzmo Questions and Support
    Replies: 1
    Last Post: 08-06-2012, 09:22 AM
  3. Mezzmo 2.6.5.0 Streaming Problems to Panasonic TV
    By JimK in forum Mezzmo Questions and Support
    Replies: 1
    Last Post: 07-17-2012, 09:59 AM
  4. panasonic G20 and LG HX806PE problems
    By lamzor in forum Mezzmo Questions and Support
    Replies: 3
    Last Post: 01-03-2012, 09:33 AM
  5. Panasonic Viera - Fast Forward problems
    By casualty in forum Mezzmo Questions and Support
    Replies: 1
    Last Post: 03-29-2011, 09:00 AM

Tags for this Thread

Bookmarks

Posting Permissions

  • You may not post new threads
  • You may not post replies
  • You may not post attachments
  • You may not edit your posts
  •