Page 1 of 3 123 LastLast
Results 1 to 10 of 21

Thread: files stuttering bad

  1. #1

    Default files stuttering bad

    Computer is AMD PhenomII 955 quad core 16gb ram hard wired network my switches that connect my homes computers and tv's are all 10/100/1000. I have 2 WD Live boxes that dont stutter at all with movies playing on both and purchased Mezzmo so as to not have to buy another WD Live Box and with nothing playing the movie stutters on my Bravia KDL-55NX810 please help I have 4 other TV's.

  2. #2
    Join Date
    Nov 2007
    Location
    Melbourne, Australia
    Posts
    11,616

    Default

    Hi mikeg,

    When you play a movie on your Sony Bravia TV and it starts to stutter, go back to Mezzmo on your PC and check the Transcoding tab. Check if your video is listed there and is marked red. If it is, then transcoding on-the-fly is not fast enough for real time playback. One solution is to pre-transcode the video before playing it (see http://forum.conceiva.com/showthread...nscoding-Files).

    Let us know the device profile that is assigned to your TV in Mezzmo. Go to the Media Devices dialog to see this.

    Also, post the FFmpeg information for the video that stuttered. Right-click on the video in Mezzmo and click 'Get FFmpeg Information'.

    Mezzmo Android: Install it on your tablet, smartphone, Android TV or Amazon Fire to browse and stream files from your Mezzmo library to all your devices. Full details at http://www.conceiva.com/products/mez...mo_android.asp
    Mezzmo for Kodi Add-on: Install it into Kodi to stream files from your Mezzmo library directly in Kodi. Full details at http://www.mezzmo.com/wiki/doku.php?...odi_user_guide
    Mezzmo for Roku App: Install it onto your Roku to stream files from your Mezzmo library. Full details at http://www.mezzmo.com/wiki/doku.php?...oku_user_guide
    Wiki: User Guides & Reference Manual at http://www.mezzmo.com/wiki
    Facebook: http://www.facebook.com/Mezzmo.DLNA.Server
    Twitter: https://twitter.com/conceiva_mezzmo
    Web: http://www.mezzmo.com

  3. #3

    Default

    I checked the transcoding tab when i was creating the log file you looked at and although it was stuttering it was NOT marked red?

    Device profile is Sony Bravia KDL (2011 models)

    ffmpeg version N-50460-g393dcbf Copyright (c) 2000-2013 the FFmpeg developers
    built on Mar 4 2013 17:38:17 with gcc 4.6.2 (GCC)
    configuration: --enable-memalign-hack --arch=x86 --target-os=mingw32 --cross-prefix=i686-w64-mingw32- --enable-static --disable-shared --enable-zlib --disable-postproc --prefix=/home/peter/ffmpeg/build/gpl --enable-libmp3lame --enable-libx264 --enable-gpl --extra-libs='-lx264 -lpthread' --enable-runtime-cpudetect --extra-cflags=-I/home/peter/cc/include --extra-ldflags=-L/home/peter/cc/lib --pkg-config=pkg-config --disable-w32threads --enable-zlib
    libavutil 52. 17.103 / 52. 17.103
    libavcodec 54. 92.100 / 54. 92.100
    libavformat 54. 63.102 / 54. 63.102
    libavdevice 54. 3.103 / 54. 3.103
    libavfilter 3. 41.100 / 3. 41.100
    libswscale 2. 2.100 / 2. 2.100
    libswresample 0. 17.102 / 0. 17.102
    Input #0, matroska,webm, from 'E:\Movies J-P\John Carter 2012 1080p.mkv':
    Duration: 02:12:01.63, start: 0.000000, bitrate: 10668 kb/s
    Chapter #0.0: start 0.000000, end 241.241000
    Metadata:
    title : 00:00:00.000
    Chapter #0.1: start 241.241000, end 622.914000
    Metadata:
    title : 00:04:01.241
    Chapter #0.2: start 622.914000, end 1208.791000
    Metadata:
    title : 00:10:22.914
    Chapter #0.3: start 1208.791000, end 1625.207000
    Metadata:
    title : 00:20:08.791
    Chapter #0.4: start 1625.207000, end 2249.164000
    Metadata:
    title : 00:27:05.207
    Chapter #0.5: start 2249.164000, end 2863.569000
    Metadata:
    title : 00:37:29.164
    Chapter #0.6: start 2863.569000, end 3531.653000
    Metadata:
    title : 00:47:43.569
    Chapter #0.7: start 3531.653000, end 4062.433000
    Metadata:
    title : 00:58:51.653
    Chapter #0.8: start 4062.433000, end 4501.038000
    Metadata:
    title : 01:07:42.433
    Chapter #0.9: start 4501.038000, end 4954.199000
    Metadata:
    title : 01:15:01.038
    Chapter #0.10: start 4954.199000, end 5429.799000
    Metadata:
    title : 01:22:34.199
    Chapter #0.11: start 5429.799000, end 5822.066000
    Metadata:
    title : 01:30:29.799
    Chapter #0.12: start 5822.066000, end 6412.031000
    Metadata:
    title : 01:37:02.066
    Chapter #0.13: start 6412.031000, end 6828.989000
    Metadata:
    title : 01:46:52.031
    Chapter #0.14: start 6828.989000, end 7374.534000
    Metadata:
    title : 01:53:48.989
    Chapter #0.15: start 7374.534000, end 7921.634000
    Metadata:
    title : 02:02:54.534
    Stream #0:0(eng): Video: h264 (High), yuv420p, 1920x800, SAR 1:1 DAR 12:5, 23.98 fps, 23.98 tbr, 1k tbn, 47.95 tbc (default)
    Stream #0:1(eng): Audio: dts (DTS), 48000 Hz, 5.1(side), fltp, 1536 kb/s (default)
    Stream #0:2(eng): Subtitle: subrip (default) (forced)
    Stream #0:3(eng): Subtitle: subrip
    At least one output file must be specified

    <MEZZMO>: Child process ended with code: 109, ExitCode=1


    ---> DB Level Info: 41, 100
    ---> Frame rate: 23.98
    ---> Aspect ratio: 12:5

  4. #4
    Join Date
    Nov 2007
    Location
    Melbourne, Australia
    Posts
    11,616

    Default

    Understand. Try pre-transcoding the video. After it completes transcoding, try playing it and see if it plays smoothly.

    Mezzmo Android: Install it on your tablet, smartphone, Android TV or Amazon Fire to browse and stream files from your Mezzmo library to all your devices. Full details at http://www.conceiva.com/products/mez...mo_android.asp
    Mezzmo for Kodi Add-on: Install it into Kodi to stream files from your Mezzmo library directly in Kodi. Full details at http://www.mezzmo.com/wiki/doku.php?...odi_user_guide
    Mezzmo for Roku App: Install it onto your Roku to stream files from your Mezzmo library. Full details at http://www.mezzmo.com/wiki/doku.php?...oku_user_guide
    Wiki: User Guides & Reference Manual at http://www.mezzmo.com/wiki
    Facebook: http://www.facebook.com/Mezzmo.DLNA.Server
    Twitter: https://twitter.com/conceiva_mezzmo
    Web: http://www.mezzmo.com

  5. #5

    Default

    Ok Paul so I upgraded processor and motherboard (it was due for an upgrade) I now have an 8 core 3.5 ghz Amd 8320 unlocked black edition and it still is hit and miss with some movies, I have one that transcoded at 850 fps and the playback has a bunch of blocks in it but when I play it on the same tv with my WD Live no problems clear as a bell? I looked to see CPU usage and it was only around 10%?

  6. #6
    Join Date
    Nov 2007
    Location
    Melbourne, Australia
    Posts
    11,616

    Default

    Hi mikeg,

    The 850 fps tells us that Mezzmo was remuxing the video. Just to explain - a video file (e.g. movie.MKV) is made of the video file container (e.g. MKV matroska) and inside the video file container are various video channels (e.g. H264, MPEG-2, MPEG-4), audio channels (e.g. DTS, AC3, AAC) and subtitle channels (SRT, SUB, ASS). When Mezzmo has to transcode a video to another format, it will prefer to copy (or remux) the video or audio channels into the new file container since this is very fast (as compared to converting to another format). So, in your case, your Sony TV cannot play MKV files and Mezzmo remuxed the video and audio channels into a compatible file container, such as MPEG-TS. The fact that your WD TV Live can play the video well but your Sony TV cannot shows that they both have different firmware that read and play videos differently. For the video that is 'blocky', try pre-transcoding it - but make sure you select the 'Force full transcode' checkbox to stop any remuxing. For details on pre-transcoding, see http://forum.conceiva.com/showthread...nscoding-Files.

    Mezzmo Android: Install it on your tablet, smartphone, Android TV or Amazon Fire to browse and stream files from your Mezzmo library to all your devices. Full details at http://www.conceiva.com/products/mez...mo_android.asp
    Mezzmo for Kodi Add-on: Install it into Kodi to stream files from your Mezzmo library directly in Kodi. Full details at http://www.mezzmo.com/wiki/doku.php?...odi_user_guide
    Mezzmo for Roku App: Install it onto your Roku to stream files from your Mezzmo library. Full details at http://www.mezzmo.com/wiki/doku.php?...oku_user_guide
    Wiki: User Guides & Reference Manual at http://www.mezzmo.com/wiki
    Facebook: http://www.facebook.com/Mezzmo.DLNA.Server
    Twitter: https://twitter.com/conceiva_mezzmo
    Web: http://www.mezzmo.com

  7. #7

    Default

    Understood, I will try that. Next question my TV is a 2011 and with the KDL 2011 profile no Avi files show up in the list on TV they are in the library.

  8. #8

    Default

    ok I tried that and it failed right away this is what it spit out.


    C:\Program Files (x86)\Conceiva\Mezzmo\ffmpeg.exe -y -i "E:\Movies J-P\Jonah.Hex.2010.1080p.mkv" -map 0:v:0 -map 0:a:0 -c:v:0 libx264 -b:v 15000000 -level 41 -profile:v main -filter:v "yadif" -pix_fmt yuv420p -copyinkf -coder 1 -flags +loop -fflags +genpts -subq 7 -me_range 16 -g 250 -keyint_min 25 -sc_threshold 40 -b_strategy 1 -x264opts direct-pred=auto:b-pyramid=normal:mixed-refs=1:weightb=1:8x8dct=1:fast-pskip=1:crf=22:ref=2:bframes=3:aud=1:me=hex -partitions -parti8x8-parti4x4-partp8x8-partp4x4-partb8x8 -bidir_refine 1 -c:a:0 ac3_fixed -ac 6 -ab 640000 -ar 48000 -sn -threads 0 -async 0 -f mpegts "C:\Users\mike\AppData\Local\Conceiva\Mezzmo\Trans codingFiles\F08B2E77-B337-4bbb-A3E3-50BA09E5A03E\Video\45-mpegts_transcoding-libx264-ac3-sn.mzt"

    ffmpeg version N-50460-g393dcbf Copyright (c) 2000-2013 the FFmpeg developers
    built on Mar 4 2013 17:38:17 with gcc 4.6.2 (GCC)
    configuration: --enable-memalign-hack --arch=x86 --target-os=mingw32 --cross-prefix=i686-w64-mingw32- --enable-static --disable-shared --enable-zlib --disable-postproc --prefix=/home/peter/ffmpeg/build/gpl --enable-libmp3lame --enable-libx264 --enable-gpl --extra-libs='-lx264 -lpthread' --enable-runtime-cpudetect --extra-cflags=-I/home/peter/cc/include --extra-ldflags=-L/home/peter/cc/lib --pkg-config=pkg-config --disable-w32threads --enable-zlib
    libavutil 52. 17.103 / 52. 17.103
    libavcodec 54. 92.100 / 54. 92.100
    libavformat 54. 63.102 / 54. 63.102
    libavdevice 54. 3.103 / 54. 3.103
    libavfilter 3. 41.100 / 3. 41.100
    libswscale 2. 2.100 / 2. 2.100
    libswresample 0. 17.102 / 0. 17.102
    Input #0, matroska,webm, from 'E:\Movies J-P\Jonah.Hex.2010.1080p.mkv':
    Metadata:
    creation_time : 2010-10-02 20:31:43
    Duration: 01:21:30.50, start: 0.000000, bitrate: 14382 kb/s
    Stream #0:0(eng): Video: h264 (High), yuv420p, 1920x800, SAR 1:1 DAR 12:5, 23.98 fps, 23.98 tbr, 1k tbn, 47.95 tbc
    Metadata:
    title : Jonah.Hex.2010.Bluray.1080p.DTS.x264-CHD
    Stream #0:1(eng): Audio: dts (DTS), 48000 Hz, 5.1(side), fltp, 1536 kb/s (default)
    Metadata:
    title : Jonah.Hex.2010.DTS-HD.MA Core_1509kbps
    Stream #0:2(eng): Audio: ac3, 48000 Hz, 5.1(side), fltp, 448 kb/s
    Stream #0:3(dut): Subtitle: subrip (default)
    [libx264 @ 038d0860] using SAR=1/1
    [libx264 @ 038d0860] using cpu capabilities: MMX2 SSE2Fast SSSE3 FastShuffle SSE4.2 AVX XOP FMA4 FMA3 SSEMisalign LZCNT BMI1 TBM
    [libx264 @ 038d0860] profile Main, level 4.1
    Output #0, mpegts, to 'C:\Users\mike\AppData\Local\Conceiva\Mezzmo\Trans codingFiles\F08B2E77-B337-4bbb-A3E3-50BA09E5A03E\Video\45-mpegts_transcoding-libx264-ac3-sn.mzt':
    Metadata:
    encoder : Lavf54.63.102
    Stream #0:0(eng): Video: h264, yuv420p, 1920x800 [SAR 1:1 DAR 12:5], q=-1--1, 15000 kb/s, 90k tbn, 23.98 tbc
    Metadata:
    title : Jonah.Hex.2010.Bluray.1080p.DTS.x264-CHD
    Stream #0:1(eng): Audio: ac3, 48000 Hz, 5.1, s16p, 640 kb/s (default)
    Metadata:
    title : Jonah.Hex.2010.DTS-HD.MA Core_1509kbps
    Stream mapping:
    Stream #0:0 -> #0:0 (h264 -> libx264)
    Stream #0:1 -> #0:1 (dca -> ac3_fixed)
    Press [q] to stop, [?] for help
    [mpegts @ 015ff940] st:0 PTS: 179970 DTS: 179970 < 180736 invalid, clipping
    frame= 44 fps=0.0 q=0.0 size= 0kB time=00:00:02.25 bitrate= 0.0kbits/s

    <MEZZMO>: Child process ended with code: 109, ExitCode=1

  9. #9

    Default

    Changed profile to kdl 2010, I will see what happens at least it is doing the full force transcode.

  10. #10
    Join Date
    Nov 2007
    Location
    Melbourne, Australia
    Posts
    11,616

    Default

    OK - let us know how you go.

    Mezzmo Android: Install it on your tablet, smartphone, Android TV or Amazon Fire to browse and stream files from your Mezzmo library to all your devices. Full details at http://www.conceiva.com/products/mez...mo_android.asp
    Mezzmo for Kodi Add-on: Install it into Kodi to stream files from your Mezzmo library directly in Kodi. Full details at http://www.mezzmo.com/wiki/doku.php?...odi_user_guide
    Mezzmo for Roku App: Install it onto your Roku to stream files from your Mezzmo library. Full details at http://www.mezzmo.com/wiki/doku.php?...oku_user_guide
    Wiki: User Guides & Reference Manual at http://www.mezzmo.com/wiki
    Facebook: http://www.facebook.com/Mezzmo.DLNA.Server
    Twitter: https://twitter.com/conceiva_mezzmo
    Web: http://www.mezzmo.com

Similar Threads

  1. Pre-Transoded Files Still Stuttering
    By cordovakid in forum Mezzmo Questions and Support
    Replies: 1
    Last Post: 06-06-2013, 11:50 AM
  2. Subtitles behaviour after upgrade : bad
    By manumi in forum Mezzmo Questions and Support
    Replies: 2
    Last Post: 02-14-2013, 08:59 AM
  3. Strangenes (not in a bad way) Sinse 2.6.x Update
    By ftanner in forum Mezzmo Questions and Support
    Replies: 3
    Last Post: 06-20-2012, 10:05 AM
  4. Bad Device (Samsung BD-5700) or something else
    By mark11 in forum Mezzmo Questions and Support
    Replies: 3
    Last Post: 02-07-2012, 03:09 PM
  5. dvr-ms files stuttering and playing in stereo on Xbox 360
    By beetlejuice in forum Mezzmo Questions and Support
    Replies: 1
    Last Post: 11-14-2011, 10:13 AM

Tags for this Thread

Bookmarks

Posting Permissions

  • You may not post new threads
  • You may not post replies
  • You may not post attachments
  • You may not edit your posts
  •