Results 1 to 4 of 4

Thread: AVI audio muffled every few seconds

  1. #1
    Join Date
    Jun 2013
    Posts
    17

    Default AVI audio muffled every few seconds

    Hello,

    I have Oshare and Mezzmo loaded currently. For some reason Mezzmo audio on AVI streaming sounds muffled every few seconds but with Oshare I'm not suffering that issue. I have not noticed this issue with Oshare on the same videos.

  2. #2
    Join Date
    Nov 2007
    Location
    Melbourne, Australia
    Posts
    11,616

    Default

    Hi boe,

    A few questions:

    • What device are you streaming to?
    • What device profile is assigned to your device in the Media Devices dialog in Mezzmo?
    • Post the FFmpeg information for the AVI. Right-click on the AVI in Mezzmo and click 'Get FFmpeg Information'.

    Mezzmo Android: Install it on your tablet, smartphone, Android TV or Amazon Fire to browse and stream files from your Mezzmo library to all your devices. Full details at http://www.conceiva.com/products/mez...mo_android.asp
    Mezzmo for Kodi Add-on: Install it into Kodi to stream files from your Mezzmo library directly in Kodi. Full details at http://www.mezzmo.com/wiki/doku.php?...odi_user_guide
    Mezzmo for Roku App: Install it onto your Roku to stream files from your Mezzmo library. Full details at http://www.mezzmo.com/wiki/doku.php?...oku_user_guide
    Wiki: User Guides & Reference Manual at http://www.mezzmo.com/wiki
    Facebook: http://www.facebook.com/Mezzmo.DLNA.Server
    Twitter: https://twitter.com/conceiva_mezzmo
    Web: http://www.mezzmo.com

  3. #3
    Join Date
    Jun 2013
    Posts
    17

    Default

    Hello Paul,

    Thanks for the quick help!

    I'm streaming to an Oppo 103 from Windows 8 x64 - both with all the updates available.
    The device profile says Oppo BDP

    ffmpeg version N-50460-g393dcbf Copyright (c) 2000-2013 the FFmpeg developers
    built on Mar 4 2013 17:38:17 with gcc 4.6.2 (GCC)
    configuration: --enable-memalign-hack --arch=x86 --target-os=mingw32 --cross-prefix=i686-w64-mingw32- --enable-static --disable-shared --enable-zlib --disable-postproc --prefix=/home/peter/ffmpeg/build/gpl --enable-libmp3lame --enable-libx264 --enable-gpl --extra-libs='-lx264 -lpthread' --enable-runtime-cpudetect --extra-cflags=-I/home/peter/cc/include --extra-ldflags=-L/home/peter/cc/lib --pkg-config=pkg-config --disable-w32threads --enable-zlib
    libavutil 52. 17.103 / 52. 17.103
    libavcodec 54. 92.100 / 54. 92.100
    libavformat 54. 63.102 / 54. 63.102
    libavdevice 54. 3.103 / 54. 3.103
    libavfilter 3. 41.100 / 3. 41.100
    libswscale 2. 2.100 / 2. 2.100
    libswresample 0. 17.102 / 0. 17.102
    [mpeg4 @ 034508e0] Invalid and inefficient vfw-avi packed B frames detected
    Input #0, avi, from 'G:\TVPast\Boston Legal\Season 01\Boston Legal - 102 - Still Crazy After All These Years.avi':
    Metadata:
    encoder : VirtualDub
    Duration: 00:42:07.82, start: 0.000000, bitrate: 1164 kb/s
    Stream #0:0: Video: mpeg4 (Advanced Simple Profile) (XVID / 0x44495658), yuv420p, 624x352 [SAR 1:1 DAR 39:22], 23.98 tbr, 23.98 tbn, 23.98 tbc
    Stream #0:1: Audio: mp3 (U[0][0][0] / 0x0055), 48000 Hz, stereo, s16p, 192 kb/s
    At least one output file must be specified

    <MEZZMO>: Child process ended with code: 109, ExitCode=1

  4. #4
    Join Date
    Nov 2007
    Location
    Melbourne, Australia
    Posts
    11,616

    Default

    Thanks for the information. Mezzmo is streaming your AVI directly to your Oppo, so it may be the audio channel inside your AVI that your Oppo can decode or play correctly. One reason Oshare may be working is that it may be transcoding the AVI to another format. You can also try this with Mezzmo. Right-click on the video and click 'Pre-transcode Files'. In the Pre-transcode Files dialog, select your device and click 'Choose Formats'. In the Pre-transcode Formats dialog, choose the bolded format and click OK. Then select the 'Pre-transcode formats even if they match the device's supported formats' checkbox. Click OK and wait until transcoding has completed. Then try streaming the AVI to your Oppo now.

    Mezzmo Android: Install it on your tablet, smartphone, Android TV or Amazon Fire to browse and stream files from your Mezzmo library to all your devices. Full details at http://www.conceiva.com/products/mez...mo_android.asp
    Mezzmo for Kodi Add-on: Install it into Kodi to stream files from your Mezzmo library directly in Kodi. Full details at http://www.mezzmo.com/wiki/doku.php?...odi_user_guide
    Mezzmo for Roku App: Install it onto your Roku to stream files from your Mezzmo library. Full details at http://www.mezzmo.com/wiki/doku.php?...oku_user_guide
    Wiki: User Guides & Reference Manual at http://www.mezzmo.com/wiki
    Facebook: http://www.facebook.com/Mezzmo.DLNA.Server
    Twitter: https://twitter.com/conceiva_mezzmo
    Web: http://www.mezzmo.com

Similar Threads

  1. Samsung B profile - AVI with VBR MP3 audio out of sync
    By Dillster in forum Mezzmo Questions and Support
    Replies: 1
    Last Post: 02-08-2012, 12:58 PM
  2. Looping after 60 seconds of play back
    By Quinntum in forum Mezzmo Questions and Support
    Replies: 5
    Last Post: 04-19-2011, 08:36 AM
  3. Audio Codec detection and transcoding problem (Mostly avi with VBR)
    By christianclavet in forum Mezzmo Questions and Support
    Replies: 1
    Last Post: 02-09-2011, 07:57 AM
  4. Plays for 30 seconds then stops
    By Spill9t9 in forum Mezzmo Questions and Support
    Replies: 30
    Last Post: 10-19-2010, 08:59 AM
  5. Randomly choppy playback/freezes every 4-5 seconds
    By Manny in forum Mezzmo Questions and Support
    Replies: 2
    Last Post: 08-18-2010, 08:43 AM

Tags for this Thread

Bookmarks

Posting Permissions

  • You may not post new threads
  • You may not post replies
  • You may not post attachments
  • You may not edit your posts
  •