Results 1 to 3 of 3

Thread: XBox 360 DivX and MKV Issue

  1. #1
    Join Date
    Nov 2012
    Posts
    3

    Default XBox 360 DivX and MKV Issue

    Hi all,

    Ive been having issues with playing both mkv's and divx file types for a while now and it is getting annoying. I have tried reinstalling mezzmo and even my pc, changed network setup, everything i can think of. So basically I can play mp4's and most avi files on the Xbox however any divx files (divx encoded avi files) does what I would call a stutter. The video slows down and the audio becomes drawn out, sort of like when your old walkman would go flat and the tape was playing too slow. This is the main issue I am having with Mezzmo at the moment, makes these filetypes unwatchable. I can convert the to x264 mp4's and they work but its I dont want to have to do this for every file.

    MKV's just stop and start regardless of whether they have been pre-transcoded.

    My setup:
    i5 2nd gen 3.2ghz
    6gb ram
    500mb lan over power (though i have tried with 1gbs lan with same results)

    Any help with this annoying problem would be greatly appreciated.

    Thanks, Daniel

  2. #2
    Join Date
    Nov 2012
    Posts
    3

    Default

    here is the ffmpeg info for a xvid file that wont play:

    ffmpeg version N-50460-g393dcbf Copyright (c) 2000-2013 the FFmpeg developers
    built on Mar 4 2013 17:38:17 with gcc 4.6.2 (GCC)
    configuration: --enable-memalign-hack --arch=x86 --target-os=mingw32 --cross-prefix=i686-w64-mingw32- --enable-static --disable-shared --enable-zlib --disable-postproc --prefix=/home/peter/ffmpeg/build/gpl --enable-libmp3lame --enable-libx264 --enable-gpl --extra-libs='-lx264 -lpthread' --enable-runtime-cpudetect --extra-cflags=-I/home/peter/cc/include --extra-ldflags=-L/home/peter/cc/lib --pkg-config=pkg-config --disable-w32threads --enable-zlib
    libavutil 52. 17.103 / 52. 17.103
    libavcodec 54. 92.100 / 54. 92.100
    libavformat 54. 63.102 / 54. 63.102
    libavdevice 54. 3.103 / 54. 3.103
    libavfilter 3. 41.100 / 3. 41.100
    libswscale 2. 2.100 / 2. 2.100
    libswresample 0. 17.102 / 0. 17.102
    Input #0, avi, from 'C:\Downloads\Downloads To Be Sorted\MasterChef.AU.S05E14.WS.PDTV.XviD.BF1.avi':
    Duration: 00:41:59.00, start: 0.000000, bitrate: 1661 kb/s
    Stream #0:0: Video: mpeg4 (Advanced Simple Profile) (XVID / 0x44495658), yuv420p, 640x352 [SAR 1:1 DAR 20:11], 25 tbr, 25 tbn, 25 tbc
    Stream #0:1: Audio: mp3 (U[0][0][0] / 0x0055), 48000 Hz, stereo, s16p, 160 kb/s
    Metadata:
    title : MasterChef.AU.S05E14.WS.PDTV.XviD.BF1 Tc0 L2 2ch 48 256 DELAY 0ms_audio
    At least one output file must be specified

    <MEZZMO>: Child process ended with code: 109, ExitCode=1


    ---> DB Level Info: 5, 15
    ---> Frame rate: 25.00
    ---> Aspect ratio: 20:11

  3. #3
    Join Date
    Nov 2007
    Location
    Melbourne, Australia
    Posts
    11,647

    Default

    Hi Daniel,

    The 'Microsoft Xbox 360' device profile tells Mezzmo to stream these AVI files directly to your Xbox. So there must be something in the way the AVI file has been encoded that causes your Xbox to not be able to play it smoothly. We've seen this before with other Xbox users - i.e. Xbox firmware does not seem to tolerate poorly encoded videos (whereas other devices can play the same video files fine). The fix is to pre-transcode the AVI to another Xbox supported format (see http://forum.conceiva.com/showthread...nscoding-Files).

    Mezzmo Android: Install it on your tablet, smartphone, Android TV or Amazon Fire to browse and stream files from your Mezzmo library to all your devices. Full details at http://www.conceiva.com/products/mez...mo_android.asp
    Mezzmo for Kodi Add-on: Install it into Kodi to stream files from your Mezzmo library directly in Kodi. Full details at http://www.mezzmo.com/wiki/doku.php?...odi_user_guide
    Mezzmo for Roku App: Install it onto your Roku to stream files from your Mezzmo library. Full details at http://www.mezzmo.com/wiki/doku.php?...oku_user_guide
    Wiki: User Guides & Reference Manual at http://www.mezzmo.com/wiki
    Facebook: http://www.facebook.com/Mezzmo.DLNA.Server
    Twitter: https://twitter.com/conceiva_mezzmo
    Web: http://www.mezzmo.com

Similar Threads

  1. XBox 360 sees Mezzmo, won't stream - everything else streams without issue
    By rherdman in forum Mezzmo Questions and Support
    Replies: 5
    Last Post: 09-24-2012, 09:17 AM
  2. MKV to Xbox 360
    By JJenson in forum Mezzmo Questions and Support
    Replies: 3
    Last Post: 09-26-2011, 10:00 AM
  3. xbox 360 mkv playback
    By barit in forum Mezzmo Questions and Support
    Replies: 6
    Last Post: 06-09-2011, 07:40 PM
  4. MKV Files stop playing on XBOX 360
    By mr.niceguy76 in forum Mezzmo Questions and Support
    Replies: 10
    Last Post: 02-21-2011, 05:36 PM
  5. XBOX 360 Issue
    By Namdam in forum Mezzmo Questions and Support
    Replies: 3
    Last Post: 05-10-2010, 01:53 PM

Tags for this Thread

Bookmarks

Posting Permissions

  • You may not post new threads
  • You may not post replies
  • You may not post attachments
  • You may not edit your posts
  •