Results 1 to 3 of 3

Thread: Samsung F series profile issues

  1. #1
    Join Date
    Jun 2013
    Posts
    41

    Default Samsung F series profile issues

    Hi, I have tried the newest F profile for Samsung and identified these two issues:

    1. Thumbnail size is set to 160px. This device is capable to display 320px size thumbnails. I've tried it and it works.
    2. Some of the movies are set to transcoding even the client is able to play them directly. For example, with profile C it works correctly. I have found 2 such files in my library so far.

    ffmpeg info for those file is:

    First:

    ffmpeg version N-50460-g393dcbf Copyright (c) 2000-2013 the FFmpeg developers
    built on Mar 4 2013 17:38:17 with gcc 4.6.2 (GCC)
    configuration: --enable-memalign-hack --arch=x86 --target-os=mingw32 --cross-prefix=i686-w64-mingw32- --enable-static --disable-shared --enable-zlib --disable-postproc --prefix=/home/peter/ffmpeg/build/gpl --enable-libmp3lame --enable-libx264 --enable-gpl --extra-libs='-lx264 -lpthread' --enable-runtime-cpudetect --extra-cflags=-I/home/peter/cc/include --extra-ldflags=-L/home/peter/cc/lib --pkg-config=pkg-config --disable-w32threads --enable-zlib
    libavutil 52. 17.103 / 52. 17.103
    libavcodec 54. 92.100 / 54. 92.100
    libavformat 54. 63.102 / 54. 63.102
    libavdevice 54. 3.103 / 54. 3.103
    libavfilter 3. 41.100 / 3. 41.100
    libswscale 2. 2.100 / 2. 2.100
    libswresample 0. 17.102 / 0. 17.102
    Input #0, matroska,webm, from 'X.mkv':
    Metadata:
    creation_time : 2012-04-25 22:22:42
    Duration: 02:06:20.99, start: 0.000000, bitrate: 15644 kb/s
    Chapter #0.0: start 0.000000, end 575.533000
    Metadata:
    title : 00:00:00.000
    Chapter #0.1: start 575.533000, end 1040.665000
    Metadata:
    title : 00:09:35.533
    Chapter #0.2: start 1040.665000, end 1412.911000
    Metadata:
    title : 00:17:20.665
    Chapter #0.3: start 1412.911000, end 1834.541000
    Metadata:
    title : 00:23:32.911
    Chapter #0.4: start 1834.541000, end 2306.262000
    Metadata:
    title : 00:30:34.541
    Chapter #0.5: start 2306.262000, end 2856.270000
    Metadata:
    title : 00:38:26.262
    Chapter #0.6: start 2856.270000, end 3337.543000
    Metadata:
    title : 00:47:36.270
    Chapter #0.7: start 3337.543000, end 3823.695000
    Metadata:
    title : 00:55:37.543
    Chapter #0.8: start 3823.695000, end 4366.862000
    Metadata:
    title : 01:03:43.695
    Chapter #0.9: start 4366.862000, end 4799.169000
    Metadata:
    title : 01:12:46.862
    Chapter #0.10: start 4799.169000, end 5230.100000
    Metadata:
    title : 01:19:59.169
    Chapter #0.11: start 5230.100000, end 5583.495000
    Metadata:
    title : 01:27:10.100
    Chapter #0.12: start 5583.495000, end 6161.280000
    Metadata:
    title : 01:33:03.495
    Chapter #0.13: start 6161.280000, end 6827.779000
    Metadata:
    title : 01:42:41.280
    Chapter #0.14: start 6827.779000, end 7198.441000
    Metadata:
    title : 01:53:47.779
    Chapter #0.15: start 7198.441000, end 7580.992000
    Metadata:
    title : 01:59:58.441
    Stream #0:0(eng): Video: h264 (High), yuv420p, 1920x1080, SAR 1:1 DAR 16:9, 23.98 fps, 23.98 tbr, 1k tbn, 47.95 tbc
    Stream #0:1(cze): Audio: ac3, 48000 Hz, 5.1(side), fltp, 640 kb/s (default)
    Metadata:
    title : CZ
    At least one output file must be specified

    <MEZZMO>: Child process ended with code: 109, ExitCode=1


    ---> DB Level Info: 41, 100
    ---> Frame rate: 23,98
    ---> Aspect ratio: 16:9

    Second:

    ffmpeg version N-50460-g393dcbf Copyright (c) 2000-2013 the FFmpeg developers
    built on Mar 4 2013 17:38:17 with gcc 4.6.2 (GCC)
    configuration: --enable-memalign-hack --arch=x86 --target-os=mingw32 --cross-prefix=i686-w64-mingw32- --enable-static --disable-shared --enable-zlib --disable-postproc --prefix=/home/peter/ffmpeg/build/gpl --enable-libmp3lame --enable-libx264 --enable-gpl --extra-libs='-lx264 -lpthread' --enable-runtime-cpudetect --extra-cflags=-I/home/peter/cc/include --extra-ldflags=-L/home/peter/cc/lib --pkg-config=pkg-config --disable-w32threads --enable-zlib
    libavutil 52. 17.103 / 52. 17.103
    libavcodec 54. 92.100 / 54. 92.100
    libavformat 54. 63.102 / 54. 63.102
    libavdevice 54. 3.103 / 54. 3.103
    libavfilter 3. 41.100 / 3. 41.100
    libswscale 2. 2.100 / 2. 2.100
    libswresample 0. 17.102 / 0. 17.102
    Input #0, matroska,webm, from 'Y.mkv':
    Metadata:
    title : *
    creation_time : 2011-10-21 07:57:21
    Duration: 01:28:51.00, start: 0.000000, bitrate: 12778 kb/s
    Stream #0:0(eng): Video: h264 (High), yuv420p, 1920x1080, SAR 1:1 DAR 16:9, 23.98 fps, 23.98 tbr, 1k tbn, 47.95 tbc (default)
    Metadata:
    title : *
    Stream #0:1(cze): Audio: ac3, 48000 Hz, 5.1(side), fltp, 640 kb/s (default)
    Metadata:
    title : DD 5.1 @ 640 Kbps
    Stream #0:2(slo): Audio: ac3, 48000 Hz, 5.1(side), fltp, 640 kb/s
    Metadata:
    title : DD 5.1 @ 640 Kbps
    Stream #0:3(eng): Audio: dts (DTS), 48000 Hz, 5.1(side), fltp, 1536 kb/s
    Metadata:
    title : DTS 5.1 @ 1.5 Mbps
    At least one output file must be specified

    <MEZZMO>: Child process ended with code: 109, ExitCode=1


    ---> DB Level Info: 41, 100
    ---> Frame rate: 23,98
    ---> Aspect ratio: 16:9

    Those two videos are streaming directly with Profile C selected but not with F. Do you have an idea why?

    Thx, Michal

  2. #2
    Join Date
    Nov 2007
    Location
    Melbourne, Australia
    Posts
    11,616

    Default

    Thanks for confirming this, Michal. Please email us at support [at] conceiva [dot] com and we'll provide an updated Samsung F device profile to try.

    Mezzmo Android: Install it on your tablet, smartphone, Android TV or Amazon Fire to browse and stream files from your Mezzmo library to all your devices. Full details at http://www.conceiva.com/products/mez...mo_android.asp
    Mezzmo for Kodi Add-on: Install it into Kodi to stream files from your Mezzmo library directly in Kodi. Full details at http://www.mezzmo.com/wiki/doku.php?...odi_user_guide
    Mezzmo for Roku App: Install it onto your Roku to stream files from your Mezzmo library. Full details at http://www.mezzmo.com/wiki/doku.php?...oku_user_guide
    Wiki: User Guides & Reference Manual at http://www.mezzmo.com/wiki
    Facebook: http://www.facebook.com/Mezzmo.DLNA.Server
    Twitter: https://twitter.com/conceiva_mezzmo
    Web: http://www.mezzmo.com

  3. #3
    Join Date
    Nov 2007
    Location
    Melbourne, Australia
    Posts
    11,616

    Default

    Mezzmo v3.3 has been released and it includes the latest Samsung F device profile.

    Mezzmo Android: Install it on your tablet, smartphone, Android TV or Amazon Fire to browse and stream files from your Mezzmo library to all your devices. Full details at http://www.conceiva.com/products/mez...mo_android.asp
    Mezzmo for Kodi Add-on: Install it into Kodi to stream files from your Mezzmo library directly in Kodi. Full details at http://www.mezzmo.com/wiki/doku.php?...odi_user_guide
    Mezzmo for Roku App: Install it onto your Roku to stream files from your Mezzmo library. Full details at http://www.mezzmo.com/wiki/doku.php?...oku_user_guide
    Wiki: User Guides & Reference Manual at http://www.mezzmo.com/wiki
    Facebook: http://www.facebook.com/Mezzmo.DLNA.Server
    Twitter: https://twitter.com/conceiva_mezzmo
    Web: http://www.mezzmo.com

Similar Threads

  1. Profile for Samsug F series ?
    By Misiak in forum Mezzmo Questions and Support
    Replies: 6
    Last Post: 07-22-2013, 08:34 AM
  2. Samsung C Series Thumbnails on v3.0.2.0
    By Gus in forum Mezzmo Questions and Support
    Replies: 2
    Last Post: 02-27-2013, 08:40 AM
  3. audio issues still....samsung bdp profile
    By troyb1 in forum Mezzmo Questions and Support
    Replies: 5
    Last Post: 06-20-2012, 09:09 AM
  4. Mezzmo 2.4.0.0, Samsung C series and MKV issues
    By robertb1969 in forum Mezzmo Questions and Support
    Replies: 15
    Last Post: 08-15-2011, 08:57 AM
  5. Issues during trial period for Samsung B860 series TV
    By B1BMBR in forum Mezzmo Wish List and Feedback
    Replies: 1
    Last Post: 03-25-2011, 08:52 AM

Tags for this Thread

Bookmarks

Posting Permissions

  • You may not post new threads
  • You may not post replies
  • You may not post attachments
  • You may not edit your posts
  •