Page 1 of 2 12 LastLast
Results 1 to 10 of 14

Thread: How to set up a fixed resolution?

  1. #1

    Question How to set up a fixed resolution?

    Hi,
    I'm new here and using Mezzmo 3.2 for a while.
    Well, I can nearly play everything thanks to Mezzmo, 3D, 21:9 format and every codec I am using for videos without to change any settings.
    My TV is a Thomson 47FU8765. Supports 3D (many methods), DLNA, USB Play etc. (Not DTS, says Mezzmo)
    My TV won't play videos that aren't 4:3 or 16:9. So I'm only capable of watching 21:9 because of Mezzmo.
    But Mezzmo doesn' fix it, if only 20 pixels are missing.
    The TV won't play a video with a resolution of 1920x1040. I hoped, like with the 21:9 format, Mezzmo would fix it.
    But it doesn't.
    Is there a way to fix this?

    --

    Other suggestions/problems - low priority but would be nice
    I think thumbnails are turned on on Mezzmo, but my TV doesn't show them. Maybe my TV don't support thumbnails.
    I really miss transcoding settings. I know I can modify the profiles, but thats unclear/confusing. Looking to the transcoding settings and maybe changing them would be nice. In the GUI.

  2. #2
    Join Date
    Nov 2007
    Location
    Melbourne, Australia
    Posts
    11,616

    Default

    Hi Yama,

    Some answers:

    1. We can add the supported video resolutions into the device profile so that Mezzmo server only delivers videos at those resolutions. What device profile are you using? There is a Thomson TV device profile in Mezzmo, so make sure you are using this one.

    2. Regarding thumbnails, we can try a few things to get thumbnails working. Email us at support [at] conceiva [dot] com & we'll supply an updated Thomson TV device profile to try. Do you see thumbnails for photos and music on your TV?

    3. We do plan to have a device profile editor in a future version of Mezzmo. Thanks for the suggestion.

    Mezzmo Android: Install it on your tablet, smartphone, Android TV or Amazon Fire to browse and stream files from your Mezzmo library to all your devices. Full details at http://www.conceiva.com/products/mez...mo_android.asp
    Mezzmo for Kodi Add-on: Install it into Kodi to stream files from your Mezzmo library directly in Kodi. Full details at http://www.mezzmo.com/wiki/doku.php?...odi_user_guide
    Mezzmo for Roku App: Install it onto your Roku to stream files from your Mezzmo library. Full details at http://www.mezzmo.com/wiki/doku.php?...oku_user_guide
    Wiki: User Guides & Reference Manual at http://www.mezzmo.com/wiki
    Facebook: http://www.facebook.com/Mezzmo.DLNA.Server
    Twitter: https://twitter.com/conceiva_mezzmo
    Web: http://www.mezzmo.com

  3. #3

    Default

    Yes, I am using the Thomson TV profile (Mezzmo selected automatically on first connect Pionneer PDB, but it works the same for me.)

    Neither I have thumbnails on pictures and music.
    Only on playback my TV shows the album cover.

  4. #4

    Default

    I sent you an e-mail 2 days ago, did you missed it?
    Or should I wait a little longer?

    Edit:
    Another video with the same resolution worked with the same profile. I don't get why the other video won't work. My TV can't handle the video codec. It is the same after the transcoding.
    Code:
    Stream #0:0(eng): Video: h264 (High), yuv420p, 1920x1040, SAR 1:1 DAR 24:13, 23.98 fps, 23.98 tbr, 1k tbn, 47.95 tbc
    Stream #0:0(ger): Video: h264 (High), yuv420p, 1920x1040, SAR 1:1 DAR 24:13, 23.98 fps, 23.98 tbr, 1k tbn, 47.95 tbc (default) (forced)
    The first one works, the second one don't.
    BTW: The second one is a 3D video and I also tried to set the 3D method in the properties from the video.
    Last edited by Yama; 07-21-2013 at 07:52 AM.

  5. #5
    Join Date
    Nov 2007
    Location
    Melbourne, Australia
    Posts
    11,616

    Default

    Sorry for the delay, Yama. We received your email and we'll respond shortly.

    Mezzmo Android: Install it on your tablet, smartphone, Android TV or Amazon Fire to browse and stream files from your Mezzmo library to all your devices. Full details at http://www.conceiva.com/products/mez...mo_android.asp
    Mezzmo for Kodi Add-on: Install it into Kodi to stream files from your Mezzmo library directly in Kodi. Full details at http://www.mezzmo.com/wiki/doku.php?...odi_user_guide
    Mezzmo for Roku App: Install it onto your Roku to stream files from your Mezzmo library. Full details at http://www.mezzmo.com/wiki/doku.php?...oku_user_guide
    Wiki: User Guides & Reference Manual at http://www.mezzmo.com/wiki
    Facebook: http://www.facebook.com/Mezzmo.DLNA.Server
    Twitter: https://twitter.com/conceiva_mezzmo
    Web: http://www.mezzmo.com

  6. #6

    Default

    Thanks Paul, I tried it asap.
    But no change. My TV says still: Video codec not supported during the playback (only audio works).

  7. #7
    Join Date
    Nov 2007
    Location
    Melbourne, Australia
    Posts
    11,616

    Default

    Please post the full FFmpeg information for the video. Right-click on the video in Mezzmo and click 'Get FFmpeg Information'.

    Mezzmo Android: Install it on your tablet, smartphone, Android TV or Amazon Fire to browse and stream files from your Mezzmo library to all your devices. Full details at http://www.conceiva.com/products/mez...mo_android.asp
    Mezzmo for Kodi Add-on: Install it into Kodi to stream files from your Mezzmo library directly in Kodi. Full details at http://www.mezzmo.com/wiki/doku.php?...odi_user_guide
    Mezzmo for Roku App: Install it onto your Roku to stream files from your Mezzmo library. Full details at http://www.mezzmo.com/wiki/doku.php?...oku_user_guide
    Wiki: User Guides & Reference Manual at http://www.mezzmo.com/wiki
    Facebook: http://www.facebook.com/Mezzmo.DLNA.Server
    Twitter: https://twitter.com/conceiva_mezzmo
    Web: http://www.mezzmo.com

  8. #8

    Default

    Here it is.
    No spoiler function here?

    ffmpeg version N-50460-g393dcbf Copyright (c) 2000-2013 the FFmpeg developers
    built on Mar 4 2013 17:38:17 with gcc 4.6.2 (GCC)
    configuration: --enable-memalign-hack --arch=x86 --target-os=mingw32 --cross-prefix=i686-w64-mingw32- --enable-static --disable-shared --enable-zlib --disable-postproc --prefix=/home/peter/ffmpeg/build/gpl --enable-libmp3lame --enable-libx264 --enable-gpl --extra-libs='-lx264 -lpthread' --enable-runtime-cpudetect --extra-cflags=-I/home/peter/cc/include --extra-ldflags=-L/home/peter/cc/lib --pkg-config=pkg-config --disable-w32threads --enable-zlib
    libavutil 52. 17.103 / 52. 17.103
    libavcodec 54. 92.100 / 54. 92.100
    libavformat 54. 63.102 / 54. 63.102
    libavdevice 54. 3.103 / 54. 3.103
    libavfilter 3. 41.100 / 3. 41.100
    libswscale 2. 2.100 / 2. 2.100
    libswresample 0. 17.102 / 0. 17.102
    Input #0, matroska,webm, from 'E:\video.mkv':
    Metadata:
    title : ANCIENT
    creation_time : 2011-01-28 07:46:07
    Duration: 01:34:48.67, start: 0.000000, bitrate: 7577 kb/s
    Stream #0:0(ger): Video: h264 (High), yuv420p, 1920x1040, SAR 1:1 DAR 24:13, 23.98 fps, 23.98 tbr, 1k tbn, 47.95 tbc (default) (forced)
    Metadata:
    title : ANCIENT
    Stream #0:1(ger): Audio: dts (DTS), 48000 Hz, 5.1(side), fltp, 768 kb/s (default) (forced)
    Metadata:
    title : GERMAN DTS
    Stream #0:2(eng): Audio: dts (DTS), 48000 Hz, 5.1(side), fltp, 1536 kb/s
    Metadata:
    title : ENGLISH DTS
    Stream #0:3(ger): Subtitle: dvd_subtitle (default) (forced)
    Metadata:
    title : GERMAN FORCED
    At least one output file must be specified

    <MEZZMO>: Child process ended with code: 109, ExitCode=1


    ---> DB Level Info: 41, 100
    ---> Frame rate: 23,98
    ---> Aspect ratio: 24:13

  9. #9
    Join Date
    Nov 2007
    Location
    Melbourne, Australia
    Posts
    11,616

    Default

    Thanks, Yama. I have emailed you a new device profile to try. Let us know how it goes.

    Mezzmo Android: Install it on your tablet, smartphone, Android TV or Amazon Fire to browse and stream files from your Mezzmo library to all your devices. Full details at http://www.conceiva.com/products/mez...mo_android.asp
    Mezzmo for Kodi Add-on: Install it into Kodi to stream files from your Mezzmo library directly in Kodi. Full details at http://www.mezzmo.com/wiki/doku.php?...odi_user_guide
    Mezzmo for Roku App: Install it onto your Roku to stream files from your Mezzmo library. Full details at http://www.mezzmo.com/wiki/doku.php?...oku_user_guide
    Wiki: User Guides & Reference Manual at http://www.mezzmo.com/wiki
    Facebook: http://www.facebook.com/Mezzmo.DLNA.Server
    Twitter: https://twitter.com/conceiva_mezzmo
    Web: http://www.mezzmo.com

  10. #10

    Default

    Holy... It works!
    Thank you, Paul
    Could you tell me the real reason why it didn't worked?
    I think I was wrong

Similar Threads

  1. Paul - What is going on here? Not all issues are fixed but you say they are..
    By jeffreybc55 in forum Mezzmo Questions and Support
    Replies: 8
    Last Post: 07-27-2012, 03:57 PM
  2. Updated fixed Xbox 360 Profile - Attached.
    By tspeirs in forum Mezzmo Questions and Support
    Replies: 1
    Last Post: 12-22-2011, 08:49 AM
  3. minor "Quick fix" issues that need to be fixed before I can buy
    By xcom923 in forum Mezzmo Questions and Support
    Replies: 8
    Last Post: 10-10-2011, 09:57 PM
  4. Screen Resolution
    By uthall in forum Mezzmo Questions and Support
    Replies: 1
    Last Post: 08-01-2011, 09:19 AM
  5. Video resolution issues
    By GliMM in forum Mezzmo Questions and Support
    Replies: 3
    Last Post: 01-08-2010, 04:13 PM

Tags for this Thread

Bookmarks

Posting Permissions

  • You may not post new threads
  • You may not post replies
  • You may not post attachments
  • You may not edit your posts
  •