Results 1 to 4 of 4

Thread: Issues with playback on 2013 model LG 50LA6230

  1. #1
    Join Date
    Jul 2013
    Posts
    2

    Default Issues with playback on 2013 model LG 50LA6230

    Hi All,

    I have a 2013 model LG 6230 and am having some issues with playback of some mkv files. I keep getting "the file is invalid". It seems that I can pre-transcode the file to fix the issue but this is far from ideal. I was hoping to get away with only having to set the audio track which by the way is a seriously awesome feature.

    I'm happy to provide any info required.

  2. #2
    Join Date
    Nov 2007
    Location
    Melbourne, Australia
    Posts
    11,616

    Default

    Let us know a few things:

    • The device profile assigned to your TV in Mezzmo. Go to the Media Devices dialog in Mezzmo to see this.
    • The FFmpeg information for the MKV that you cannot play. Right-click on the video in Mezzmo and click 'Get FFmpeg Information'.

    Mezzmo Android: Install it on your tablet, smartphone, Android TV or Amazon Fire to browse and stream files from your Mezzmo library to all your devices. Full details at http://www.conceiva.com/products/mez...mo_android.asp
    Mezzmo for Kodi Add-on: Install it into Kodi to stream files from your Mezzmo library directly in Kodi. Full details at http://www.mezzmo.com/wiki/doku.php?...odi_user_guide
    Mezzmo for Roku App: Install it onto your Roku to stream files from your Mezzmo library. Full details at http://www.mezzmo.com/wiki/doku.php?...oku_user_guide
    Wiki: User Guides & Reference Manual at http://www.mezzmo.com/wiki
    Facebook: http://www.facebook.com/Mezzmo.DLNA.Server
    Twitter: https://twitter.com/conceiva_mezzmo
    Web: http://www.mezzmo.com

  3. #3
    Join Date
    Jul 2013
    Posts
    2

    Default

    Thanks Paul, I've tried the following profiles:
    • LG TV
    • LG TV (2012 Models)
    • LG BluRay


    Currently on LG TV


    Various files:
    Code:
    ffmpeg version N-50460-g393dcbf Copyright (c) 2000-2013 the FFmpeg developers
      built on Mar  4 2013 17:38:17 with gcc 4.6.2 (GCC)
      configuration: --enable-memalign-hack --arch=x86 --target-os=mingw32 --cross-prefix=i686-w64-mingw32- --enable-static --disable-shared --enable-zlib --disable-postproc --prefix=/home/peter/ffmpeg/build/gpl --enable-libmp3lame --enable-libx264 --enable-gpl --extra-libs='-lx264 -lpthread' --enable-runtime-cpudetect --extra-cflags=-I/home/peter/cc/include --extra-ldflags=-L/home/peter/cc/lib --pkg-config=pkg-config --disable-w32threads --enable-zlib
      libavutil      52. 17.103 / 52. 17.103
      libavcodec     54. 92.100 / 54. 92.100
      libavformat    54. 63.102 / 54. 63.102
      libavdevice    54.  3.103 / 54.  3.103
      libavfilter     3. 41.100 /  3. 41.100
      libswscale      2.  2.100 /  2.  2.100
      libswresample   0. 17.102 /  0. 17.102
    [matroska,webm @ 0179e780] Stream #5: not enough frames to estimate rate; consider increasing probesize
    [matroska,webm @ 0179e780] Stream #6: not enough frames to estimate rate; consider increasing probesize
    [matroska,webm @ 0179e780] Stream #7: not enough frames to estimate rate; consider increasing probesize
    [matroska,webm @ 0179e780] Stream #8: not enough frames to estimate rate; consider increasing probesize
    [matroska,webm @ 0179e780] Stream #9: not enough frames to estimate rate; consider increasing probesize
    [matroska,webm @ 0179e780] Stream #10: not enough frames to estimate rate; consider increasing probesize
    [matroska,webm @ 0179e780] Stream #11: not enough frames to estimate rate; consider increasing probesize
    [matroska,webm @ 0179e780] Stream #12: not enough frames to estimate rate; consider increasing probesize
    [matroska,webm @ 0179e780] Stream #13: not enough frames to estimate rate; consider increasing probesize
    [matroska,webm @ 0179e780] Stream #14: not enough frames to estimate rate; consider increasing probesize
    [matroska,webm @ 0179e780] Stream #15: not enough frames to estimate rate; consider increasing probesize
    [matroska,webm @ 0179e780] Stream #16: not enough frames to estimate rate; consider increasing probesize
    [matroska,webm @ 0179e780] Stream #17: not enough frames to estimate rate; consider increasing probesize
    [matroska,webm @ 0179e780] Stream #18: not enough frames to estimate rate; consider increasing probesize
    [matroska,webm @ 0179e780] Stream #19: not enough frames to estimate rate; consider increasing probesize
    [matroska,webm @ 0179e780] Stream #20: not enough frames to estimate rate; consider increasing probesize
    [matroska,webm @ 0179e780] Stream #21: not enough frames to estimate rate; consider increasing probesize
    [matroska,webm @ 0179e780] Stream #22: not enough frames to estimate rate; consider increasing probesize
    [matroska,webm @ 0179e780] Stream #23: not enough frames to estimate rate; consider increasing probesize
    [matroska,webm @ 0179e780] Stream #24: not enough frames to estimate rate; consider increasing probesize
    [matroska,webm @ 0179e780] Stream #25: not enough frames to estimate rate; consider increasing probesize
    [matroska,webm @ 0179e780] Stream #26: not enough frames to estimate rate; consider increasing probesize
    [matroska,webm @ 0179e780] Stream #27: not enough frames to estimate rate; consider increasing probesize
    [matroska,webm @ 0179e780] Stream #28: not enough frames to estimate rate; consider increasing probesize
    [matroska,webm @ 0179e780] Stream #29: not enough frames to estimate rate; consider increasing probesize
    [matroska,webm @ 0179e780] Stream #30: not enough frames to estimate rate; consider increasing probesize
    [matroska,webm @ 0179e780] Stream #31: not enough frames to estimate rate; consider increasing probesize
    [matroska,webm @ 0179e780] Stream #32: not enough frames to estimate rate; consider increasing probesize
    [matroska,webm @ 0179e780] Stream #33: not enough frames to estimate rate; consider increasing probesize
    [matroska,webm @ 0179e780] Stream #34: not enough frames to estimate rate; consider increasing probesize
    [matroska,webm @ 0179e780] Stream #35: not enough frames to estimate rate; consider increasing probesize
    [matroska,webm @ 0179e780] Stream #36: not enough frames to estimate rate; consider increasing probesize
    [matroska,webm @ 0179e780] Stream #37: not enough frames to estimate rate; consider increasing probesize
    [matroska,webm @ 0179e780] Stream #38: not enough frames to estimate rate; consider increasing probesize
    [matroska,webm @ 0179e780] Stream #39: not enough frames to estimate rate; consider increasing probesize
    [matroska,webm @ 0179e780] Stream #40: not enough frames to estimate rate; consider increasing probesize
    [matroska,webm @ 0179e780] Stream #41: not enough frames to estimate rate; consider increasing probesize
    [matroska,webm @ 0179e780] Stream #42: not enough frames to estimate rate; consider increasing probesize
    [matroska,webm @ 0179e780] Stream #43: not enough frames to estimate rate; consider increasing probesize
    [matroska,webm @ 0179e780] Stream #44: not enough frames to estimate rate; consider increasing probesize
    [matroska,webm @ 0179e780] Stream #45: not enough frames to estimate rate; consider increasing probesize
    [matroska,webm @ 0179e780] Stream #46: not enough frames to estimate rate; consider increasing probesize
    [matroska,webm @ 0179e780] Stream #47: not enough frames to estimate rate; consider increasing probesize
    [matroska,webm @ 0179e780] Stream #48: not enough frames to estimate rate; consider increasing probesize
    [matroska,webm @ 0179e780] Stream #49: not enough frames to estimate rate; consider increasing probesize
    [matroska,webm @ 0179e780] Stream #50: not enough frames to estimate rate; consider increasing probesize
    [matroska,webm @ 0179e780] Stream #51: not enough frames to estimate rate; consider increasing probesize
    [matroska,webm @ 0179e780] Stream #52: not enough frames to estimate rate; consider increasing probesize
    [matroska,webm @ 0179e780] Stream #53: not enough frames to estimate rate; consider increasing probesize
    [matroska,webm @ 0179e780] Stream #54: not enough frames to estimate rate; consider increasing probesize
    [matroska,webm @ 0179e780] Stream #55: not enough frames to estimate rate; consider increasing probesize
    [matroska,webm @ 0179e780] Stream #56: not enough frames to estimate rate; consider increasing probesize
    [matroska,webm @ 0179e780] Stream #57: not enough frames to estimate rate; consider increasing probesize
    [matroska,webm @ 0179e780] Stream #58: not enough frames to estimate rate; consider increasing probesize
    [matroska,webm @ 0179e780] Stream #59: not enough frames to estimate rate; consider increasing probesize
    [matroska,webm @ 0179e780] Stream #60: not enough frames to estimate rate; consider increasing probesize
    [matroska,webm @ 0179e780] Stream #61: not enough frames to estimate rate; consider increasing probesize
    [matroska,webm @ 0179e780] Could not find codec parameters for stream 6 (Attachment: none): unknown codec
    Consider increasing the value for the 'analyzeduration' and 'probesize' options
    Input #0, matroska,webm, from '\\ULTRANAS4\mainshare\Anime New 2013\Angel Beats Complete (Dual-Audio)[720p] mHD\Angel Beats! 01 - Departure [m720p].mkv':
      Metadata:
        creation_time   : 2011-07-26 15:15:55
      Duration: 00:26:02.75, start: 0.000000, bitrate: 711 kb/s
        Chapter #0.0: start 0.000000, end 91.049000
        Metadata:
          title           : OP
        Chapter #0.1: start 91.049000, end 857.024000
        Metadata:
          title           : Part A
        Chapter #0.2: start 857.024000, end 1454.121000
        Metadata:
          title           : Part B
        Chapter #0.3: start 1454.121000, end 1546.570000
        Metadata:
          title           : ED
        Chapter #0.4: start 1546.570000, end 1562.752000
        Metadata:
          title           : Preview
        Stream #0:0(eng): Video: h264 (High), yuv420p, 1280x720 [SAR 1:1 DAR 16:9], 23.98 fps, 23.98 tbr, 1k tbn, 47.95 tbc (default)
        Stream #0:1(eng): Audio: aac, 48000 Hz, stereo, fltp (default)
        Stream #0:2(jpn): Audio: aac, 48000 Hz, stereo, fltp
        Stream #0:3(eng): Subtitle: ssa (default)
        Metadata:
          title           : Signs/Songs
        Stream #0:4(jpn): Subtitle: ssa
        Metadata:
          title           : Dialogue
    Codec 0x18000 is not in the full list.
        Stream #0:5: Attachment: unknown_codec
        Metadata:
          filename        : scott__.ttf
          mimetype        : application/x-truetype-font
        Stream #0:6: Attachment: none
        Metadata:
          filename        : simsun.ttc
          mimetype        : application/octet-stream
    Codec 0x18000 is not in the full list.
        Stream #0:7: Attachment: unknown_codec
        Metadata:
          filename        : Summer Wars.TTF
          mimetype        : application/x-truetype-font
    Codec 0x18000 is not in the full list.
        Stream #0:8: Attachment: unknown_codec
        Metadata:
          filename        : Swkeys1.ttf
          mimetype        : application/x-truetype-font
    Codec 0x18000 is not in the full list.
        Stream #0:9: Attachment: unknown_codec
        Metadata:
          filename        : symbol.ttf
          mimetype        : application/x-truetype-font
    Codec 0x18000 is not in the full list.
        Stream #0:10: Attachment: unknown_codec
        Metadata:
          filename        : TakaoPMincho.ttf
          mimetype        : application/x-truetype-font
    Codec 0x18000 is not in the full list.
        Stream #0:11: Attachment: unknown_codec
        Metadata:
          filename        : times.ttf
          mimetype        : application/x-truetype-font
    Codec 0x18000 is not in the full list.
        Stream #0:12: Attachment: unknown_codec
        Metadata:
          filename        : VAGRoundedStd-Light.ttf
          mimetype        : application/x-truetype-font
    Codec 0x18000 is not in the full list.
        Stream #0:13: Attachment: unknown_codec
        Metadata:
          filename        : webdings.ttf
          mimetype        : application/x-truetype-font
    Codec 0x18000 is not in the full list.
        Stream #0:14: Attachment: unknown_codec
        Metadata:
          filename        : wingding.ttf
          mimetype        : application/x-truetype-font
    Codec 0x18000 is not in the full list.
        Stream #0:15: Attachment: unknown_codec
        Metadata:
          filename        : WINGDNG2.TTF
          mimetype        : application/x-truetype-font
    Codec 0x18000 is not in the full list.
        Stream #0:16: Attachment: unknown_codec
        Metadata:
          filename        : WINGDNG3.TTF
          mimetype        : application/x-truetype-font
    Codec 0x18000 is not in the full list.
        Stream #0:17: Attachment: unknown_codec
        Metadata:
          filename        : y2k.ttf
          mimetype        : application/x-truetype-font
    Codec 0x18000 is not in the full list.
        Stream #0:18: Attachment: unknown_codec
        Metadata:
          filename        : 71MKA.TTF
          mimetype        : application/x-truetype-font
    Codec 0x18000 is not in the full list.
        Stream #0:19: Attachment: unknown_codec
        Metadata:
          filename        : 75749.TTF
          mimetype        : application/x-truetype-font
    Codec 0x18000 is not in the full list.
        Stream #0:20: Attachment: unknown_codec
        Metadata:
          filename        : ALBED_.TTF
          mimetype        : application/x-truetype-font
    Codec 0x18000 is not in the full list.
        Stream #0:21: Attachment: unknown_codec
        Metadata:
          filename        : ALIEN5.TTF
          mimetype        : application/x-truetype-font
    Codec 0x18000 is not in the full list.
        Stream #0:22: Attachment: unknown_codec
        Metadata:
          filename        : ALMAGRO.TTF
          mimetype        : application/x-truetype-font
    Codec 0x18000 is not in the full list.
        Stream #0:23: Attachment: unknown_codec
        Metadata:
          filename        : angelina.TTF
          mimetype        : application/x-truetype-font
    Codec 0x18000 is not in the full list.
        Stream #0:24: Attachment: unknown_codec
        Metadata:
          filename        : arial.ttf
          mimetype        : application/x-truetype-font
    Codec 0x18000 is not in the full list.
        Stream #0:25: Attachment: unknown_codec
        Metadata:
          filename        : AriaScriptSSK-Regular.ttf
          mimetype        : application/x-truetype-font
    Codec 0x18000 is not in the full list.
        Stream #0:26: Attachment: unknown_codec
        Metadata:
          filename        : Artistik.ttf
          mimetype        : application/x-truetype-font
    Codec 0x18000 is not in the full list.
        Stream #0:27: Attachment: unknown_codec
        Metadata:
          filename        : AUBREY1.TTF
          mimetype        : application/x-truetype-font
    Codec 0x18000 is not in the full list.
        Stream #0:28: Attachment: unknown_codec
        Metadata:
          filename        : BAKESBR.TTF
          mimetype        : application/x-truetype-font
    Codec 0x18000 is not in the full list.
        Stream #0:29: Attachment: unknown_codec
        Metadata:
          filename        : Beach.ttf
          mimetype        : application/x-truetype-font
    Codec 0x18000 is not in the full list.
        Stream #0:30: Attachment: unknown_codec
        Metadata:
          filename        : Bienetresocial.ttf
          mimetype        : application/x-truetype-font
    Codec 0x18000 is not in the full list.
        Stream #0:31: Attachment: unknown_codec
        Metadata:
          filename        : BODO6OB.TTF
          mimetype        : application/x-truetype-font
    Codec 0x18000 is not in the full list.
        Stream #0:32: Attachment: unknown_codec
        Metadata:
          filename        : BODO6OW.TTF
          mimetype        : application/x-truetype-font
    Codec 0x18000 is not in the full list.
        Stream #0:33: Attachment: unknown_codec
        Metadata:
          filename        : BRITANIC.TTF
          mimetype        : application/x-truetype-font
    Codec 0x18000 is not in the full list.
        Stream #0:34: Attachment: unknown_codec
        Metadata:
          filename        : BSSYM7.TTF
          mimetype        : application/x-truetype-font
    Codec 0x18000 is not in the full list.
        Stream #0:35: Attachment: unknown_codec
        Metadata:
          filename        : Cartoon_Regular.ttf
          mimetype        : application/x-truetype-font
    Codec 0x18000 is not in the full list.
        Stream #0:36: Attachment: unknown_codec
        Metadata:
          filename        : CharpentierRenaissance-Norm.otf
          mimetype        : application/x-truetype-font
    Codec 0x18000 is not in the full list.
        Stream #0:37: Attachment: unknown_codec
        Metadata:
          filename        : chinacat.ttf
          mimetype        : application/x-truetype-font
    Codec 0x18000 is not in the full list.
        Stream #0:38: Attachment: unknown_codec
        Metadata:
          filename        : ChopinScript.TTF
          mimetype        : application/x-truetype-font
    Codec 0x18000 is not in the full list.
        Stream #0:39: Attachment: unknown_codec
        Metadata:
          filename        : COMMSB_.TTF
          mimetype        : application/x-truetype-font
    Codec 0x18000 is not in the full list.
        Stream #0:40: Attachment: unknown_codec
        Metadata:
          filename        : CopperplateGothicBold.TTF
          mimetype        : application/x-truetype-font
    Codec 0x18000 is not in the full list.
        Stream #0:41: Attachment: unknown_codec
        Metadata:
          filename        : Dutch_766_Bold_BT.ttf
          mimetype        : application/x-truetype-font
    Codec 0x18000 is not in the full list.
        Stream #0:42: Attachment: unknown_codec
        Metadata:
          filename        : EFFLORES.TTF
          mimetype        : application/x-truetype-font
    Codec 0x18000 is not in the full list.
        Stream #0:43: Attachment: unknown_codec
        Metadata:
          filename        : Hamilton-Medium.otf
          mimetype        : application/x-truetype-font
    Codec 0x18000 is not in the full list.
        Stream #0:44: Attachment: unknown_codec
        Metadata:
          filename        : icedeart.ttf
          mimetype        : application/x-truetype-font
    Codec 0x18000 is not in the full list.
        Stream #0:45: Attachment: unknown_codec
        Metadata:
          filename        : IHATCS.TTF
          mimetype        : application/x-truetype-font
    Codec 0x18000 is not in the full list.
        Stream #0:46: Attachment: unknown_codec
        Metadata:
          filename        : JAPAB.TTF
          mimetype        : application/x-truetype-font
    Codec 0x18000 is not in the full list.
        Stream #0:47: Attachment: unknown_codec
        Metadata:
          filename        : LightWrite_Normal.ttf
          mimetype        : application/x-truetype-font
    Codec 0x18000 is not in the full list.
        Stream #0:48: Attachment: unknown_codec
        Metadata:
          filename        : linkin.ttf
          mimetype        : application/x-truetype-font
    Codec 0x18000 is not in the full list.
        Stream #0:49: Attachment: unknown_codec
        Metadata:
          filename        : Magic_Cards.ttf
          mimetype        : application/x-truetype-font
    Codec 0x18000 is not in the full list.
        Stream #0:50: Attachment: unknown_codec
        Metadata:
          filename        : MARIANFU.TTF
          mimetype        : application/x-truetype-font
    Codec 0x18000 is not in the full list.
        Stream #0:51: Attachment: unknown_codec
        Metadata:
          filename        : marlett.ttf
          mimetype        : application/x-truetype-font
    Codec 0x18000 is not in the full list.
        Stream #0:52: Attachment: unknown_codec
        Metadata:
          filename        : MECHAG.TTF
          mimetype        : application/x-truetype-font
    Codec 0x18000 is not in the full list.
        Stream #0:53: Attachment: unknown_codec
        Metadata:
          filename        : MinionPro-BoldCn.otf
          mimetype        : application/x-truetype-font
    Codec 0x18000 is not in the full list.
        Stream #0:54: Attachment: unknown_codec
        Metadata:
          filename        : MinionPro-BoldCnIt.otf
          mimetype        : application/x-truetype-font
    Codec 0x18000 is not in the full list.
        Stream #0:55: Attachment: unknown_codec
        Metadata:
          filename        : MinionPro-Regular.otf
          mimetype        : application/x-truetype-font
    Codec 0x18000 is not in the full list.
        Stream #0:56: Attachment: unknown_codec
        Metadata:
          filename        : PURI10.TTF
          mimetype        : application/x-truetype-font
    Codec 0x18000 is not in the full list.
        Stream #0:57: Attachment: unknown_codec
        Metadata:
          filename        : PURIB10.TTF
          mimetype        : application/x-truetype-font
    Codec 0x18000 is not in the full list.
        Stream #0:58: Attachment: unknown_codec
        Metadata:
          filename        : PURIBI10.TTF
          mimetype        : application/x-truetype-font
    Codec 0x18000 is not in the full list.
        Stream #0:59: Attachment: unknown_codec
        Metadata:
          filename        : Quorum Black BT.ttf
          mimetype        : application/x-truetype-font
    Codec 0x18000 is not in the full list.
        Stream #0:60: Attachment: unknown_codec
        Metadata:
          filename        : REFSPCL.TTF
          mimetype        : application/x-truetype-font
    Codec 0x18000 is not in the full list.
        Stream #0:61: Attachment: unknown_codec
        Metadata:
          filename        : SCAR6.TTF
          mimetype        : application/x-truetype-font
    At least one output file must be specified
    
    <MEZZMO>: Child process ended with code: 109, ExitCode=1
    
    
    ---> DB Level Info: 51, 100
    ---> Frame rate: 23.98
    ---> Aspect ratio: 16:9
    Code:
    ffmpeg version N-50460-g393dcbf Copyright (c) 2000-2013 the FFmpeg developers
      built on Mar  4 2013 17:38:17 with gcc 4.6.2 (GCC)
      configuration: --enable-memalign-hack --arch=x86 --target-os=mingw32 --cross-prefix=i686-w64-mingw32- --enable-static --disable-shared --enable-zlib --disable-postproc --prefix=/home/peter/ffmpeg/build/gpl --enable-libmp3lame --enable-libx264 --enable-gpl --extra-libs='-lx264 -lpthread' --enable-runtime-cpudetect --extra-cflags=-I/home/peter/cc/include --extra-ldflags=-L/home/peter/cc/lib --pkg-config=pkg-config --disable-w32threads --enable-zlib
      libavutil      52. 17.103 / 52. 17.103
      libavcodec     54. 92.100 / 54. 92.100
      libavformat    54. 63.102 / 54. 63.102
      libavdevice    54.  3.103 / 54.  3.103
      libavfilter     3. 41.100 /  3. 41.100
      libswscale      2.  2.100 /  2.  2.100
      libswresample   0. 17.102 /  0. 17.102
    Input #0, matroska,webm, from '\\ULTRANAS4\mainshare\Anime New 2013\Dot Hack Sign 1-28+Extras\(B-A)hack_GIFT_(1BB88E0D).mkv':
      Metadata:
        creation_time   : 2004-03-09 03:43:54
      Duration: 00:26:08.66, start: 0.000000, bitrate: 1210 kb/s
        Stream #0:0(eng): Video: mpeg4 (Advanced Simple Profile) (XVID / 0x44495658), yuv420p, 704x396 [SAR 1:1 DAR 16:9], 23.98 fps, 23.98 tbr, 1k tbn, 23.98 tbc (default)
        Stream #0:1(jpn): Audio: aac, 44100 Hz, stereo, fltp (default)
        Metadata:
          title           : Japanese Audio
        Stream #0:2(eng): Subtitle: subrip (default)
        Metadata:
          title           : Subtitles
    At least one output file must be specified
    
    <MEZZMO>: Child process ended with code: 109, ExitCode=1
    
    
    ---> DB Level Info: 5, 15
    ---> Frame rate: 23.98
    ---> Aspect ratio: 16:9
    Code:
    ffmpeg version N-50460-g393dcbf Copyright (c) 2000-2013 the FFmpeg developers
      built on Mar  4 2013 17:38:17 with gcc 4.6.2 (GCC)
      configuration: --enable-memalign-hack --arch=x86 --target-os=mingw32 --cross-prefix=i686-w64-mingw32- --enable-static --disable-shared --enable-zlib --disable-postproc --prefix=/home/peter/ffmpeg/build/gpl --enable-libmp3lame --enable-libx264 --enable-gpl --extra-libs='-lx264 -lpthread' --enable-runtime-cpudetect --extra-cflags=-I/home/peter/cc/include --extra-ldflags=-L/home/peter/cc/lib --pkg-config=pkg-config --disable-w32threads --enable-zlib
      libavutil      52. 17.103 / 52. 17.103
      libavcodec     54. 92.100 / 54. 92.100
      libavformat    54. 63.102 / 54. 63.102
      libavdevice    54.  3.103 / 54.  3.103
      libavfilter     3. 41.100 /  3. 41.100
      libswscale      2.  2.100 /  2.  2.100
      libswresample   0. 17.102 /  0. 17.102
    Input #0, matroska,webm, from '\\ULTRANAS4\mainshare\Anime New 2013\Needless [ginseng]\[ginseng] Needless - 01v2 [BDRip _720p _10Bit] [28772F53].mkv':
      Metadata:
        title           : 00004 track_4113
        creation_time   : 2012-03-31 20:22:51
      Duration: 00:23:41.03, start: 0.000000, bitrate: 3813 kb/s
        Chapter #0.0: start 0.000000, end 90.090000
        Metadata:
          title           : Opening
        Chapter #0.1: start 90.090000, end 120.120000
        Metadata:
          title           : Introduction
        Chapter #0.2: start 120.120000, end 1314.357000
        Metadata:
          title           : Episode
        Chapter #0.3: start 1314.357000, end 1405.031000
        Metadata:
          title           : Ending
        Chapter #0.4: start 1405.031000, end 1421.034000
        Metadata:
          title           : Preview
        Stream #0:0(eng): Subtitle: ssa
        Metadata:
          title           : English OP/ED/Titles
        Stream #0:1(eng): Video: h264 (High 10), yuv420p10le, 1280x720 [SAR 1:1 DAR 16:9], 23.98 fps, 23.98 tbr, 1k tbn, 47.95 tbc
        Stream #0:2(jpn): Audio: aac, 48000 Hz, stereo, fltp (default)
        Stream #0:3(eng): Subtitle: ssa (default)
        Metadata:
          title           : Dmon Edit
        Stream #0:4(eng): Audio: aac, 48000 Hz, stereo, fltp
        Metadata:
          title           : English 2.0 Audio
    Codec 0x18000 is not in the full list.
        Stream #0:5: Attachment: unknown_codec
        Metadata:
          filename        : CandelaBold.otf
          mimetype        : application/x-truetype-font
    Codec 0x18000 is not in the full list.
        Stream #0:6: Attachment: unknown_codec
        Metadata:
          filename        : arnorg.ttf
          mimetype        : application/x-truetype-font
    Codec 0x18000 is not in the full list.
        Stream #0:7: Attachment: unknown_codec
        Metadata:
          filename        : calibri.ttf
          mimetype        : application/x-truetype-font
    Codec 0x18000 is not in the full list.
        Stream #0:8: Attachment: unknown_codec
        Metadata:
          filename        : Disney Simple.ttf
          mimetype        : application/x-truetype-font
    Codec 0x18000 is not in the full list.
        Stream #0:9: Attachment: unknown_codec
        Metadata:
          filename        : HITROAD.TTF
          mimetype        : application/x-truetype-font
    Codec 0x18000 is not in the full list.
        Stream #0:10: Attachment: unknown_codec
        Metadata:
          filename        : CronosPro-Semibold.ttf
          mimetype        : application/x-truetype-font
    Codec 0x18000 is not in the full list.
        Stream #0:11: Attachment: unknown_codec
        Metadata:
          filename        : DARK11_.ttf
          mimetype        : application/x-truetype-font
    Codec 0x18000 is not in the full list.
        Stream #0:12: Attachment: unknown_codec
        Metadata:
          filename        : mvboli.ttf
          mimetype        : application/x-truetype-font
    Codec 0x18000 is not in the full list.
        Stream #0:13: Attachment: unknown_codec
        Metadata:
          filename        : AIRCUT.TTF
          mimetype        : application/x-truetype-font
    At least one output file must be specified
    
    <MEZZMO>: Child process ended with code: 109, ExitCode=1
    
    
    ---> DB Level Info: 51, 110
    ---> Frame rate: 23.98
    ---> Aspect ratio: 16:9
    Code:
    ffmpeg version N-50460-g393dcbf Copyright (c) 2000-2013 the FFmpeg developers
      built on Mar  4 2013 17:38:17 with gcc 4.6.2 (GCC)
      configuration: --enable-memalign-hack --arch=x86 --target-os=mingw32 --cross-prefix=i686-w64-mingw32- --enable-static --disable-shared --enable-zlib --disable-postproc --prefix=/home/peter/ffmpeg/build/gpl --enable-libmp3lame --enable-libx264 --enable-gpl --extra-libs='-lx264 -lpthread' --enable-runtime-cpudetect --extra-cflags=-I/home/peter/cc/include --extra-ldflags=-L/home/peter/cc/lib --pkg-config=pkg-config --disable-w32threads --enable-zlib
      libavutil      52. 17.103 / 52. 17.103
      libavcodec     54. 92.100 / 54. 92.100
      libavformat    54. 63.102 / 54. 63.102
      libavdevice    54.  3.103 / 54.  3.103
      libavfilter     3. 41.100 /  3. 41.100
      libswscale      2.  2.100 /  2.  2.100
      libswresample   0. 17.102 /  0. 17.102
    [matroska,webm @ 01bee7e0] max_analyze_duration 60000000 reached at 60018292 microseconds
    [matroska,webm @ 01bee7e0] Could not find codec parameters for stream 5 (Subtitle: hdmv_pgs_subtitle): unspecified size
    Consider increasing the value for the 'analyzeduration' and 'probesize' options
    Input #0, matroska,webm, from '\\ULTRANAS4\mainshare\Anime New 2013\UN-GO\[Daman] UN-GO 00 [1280x720_Blu_Ray_Dual_Audio_AAC].mkv':
      Metadata:
        creation_time   : 2012-11-08 11:41:31
      Duration: 00:48:31.03, start: 0.000000, bitrate: 4215 kb/s
        Chapter #0.0: start 0.033000, end 90.716000
        Metadata:
          title           : Intro
        Chapter #0.1: start 90.716000, end 2621.369000
        Metadata:
          title           : Episode
        Chapter #0.2: start 2621.369000, end 2780.319000
        Metadata:
          title           : ED
        Chapter #0.3: start 2780.319000, end 2870.367000
        Metadata:
          title           : OP
        Chapter #0.4: start 2870.367000, end 2911.033000
        Metadata:
          title           : Outro
        Stream #0:0(eng): Video: h264 (High 10), yuv420p10le, 1280x720 [SAR 1:1 DAR 16:9], 23.98 fps, 23.98 tbr, 1k tbn, 47.95 tbc (default)
        Metadata:
          title           : 000000000
        Stream #0:1(eng): Audio: aac, 48000 Hz, stereo, fltp (default)
        Metadata:
          title           : English 2.0 AAC
        Stream #0:2(jpn): Audio: aac, 48000 Hz, stereo, fltp
        Metadata:
          title           : Japanese 2.0 AAC
        Stream #0:3(eng): Subtitle: ssa (default)
        Metadata:
          title           : Signs/OP/ED
        Stream #0:4(eng): Subtitle: ssa
        Metadata:
          title           : English Subtitles
        Stream #0:5(eng): Subtitle: hdmv_pgs_subtitle
        Metadata:
          title           : Official Signs/OP/ED
        Stream #0:6(eng): Subtitle: hdmv_pgs_subtitle
        Metadata:
          title           : English Subtitles
    At least one output file must be specified
    
    <MEZZMO>: Child process ended with code: 109, ExitCode=1
    
    
    ---> DB Level Info: 31, 110
    ---> Frame rate: 23.98
    ---> Aspect ratio: 16:9
    Code:
    ffmpeg version N-50460-g393dcbf Copyright (c) 2000-2013 the FFmpeg developers
      built on Mar  4 2013 17:38:17 with gcc 4.6.2 (GCC)
      configuration: --enable-memalign-hack --arch=x86 --target-os=mingw32 --cross-prefix=i686-w64-mingw32- --enable-static --disable-shared --enable-zlib --disable-postproc --prefix=/home/peter/ffmpeg/build/gpl --enable-libmp3lame --enable-libx264 --enable-gpl --extra-libs='-lx264 -lpthread' --enable-runtime-cpudetect --extra-cflags=-I/home/peter/cc/include --extra-ldflags=-L/home/peter/cc/lib --pkg-config=pkg-config --disable-w32threads --enable-zlib
      libavutil      52. 17.103 / 52. 17.103
      libavcodec     54. 92.100 / 54. 92.100
      libavformat    54. 63.102 / 54. 63.102
      libavdevice    54.  3.103 / 54.  3.103
      libavfilter     3. 41.100 /  3. 41.100
      libswscale      2.  2.100 /  2.  2.100
      libswresample   0. 17.102 /  0. 17.102
    [matroska,webm @ 015ce7c0] Unknown entry 0x63C9
    Input #0, matroska,webm, from '\\ULTRANAS4\mainshare\Anime New 2013\[OZC]RahXephon Complete Series [720p]\[OZC]RahXephon E01 'Invasion of the Capital' [720p].mkv':
      Metadata:
        creation_time   : 2012-08-19 06:16:24
        TRACKSETEX      : 755329477 . 3000000000 500000000 jpn Japanese
      Duration: 00:23:30.97, start: 0.000000, bitrate: 2503 kb/s
        Chapter #0.0: start 0.000000, end 85.422000
        Metadata:
          title           : Opening Credits
        Chapter #0.1: start 85.422000, end 634.333000
        Metadata:
          title           : Act 1
        Chapter #0.2: start 634.333000, end 1290.212000
        Metadata:
          title           : Act 2
        Chapter #0.3: start 1290.212000, end 1380.651000
        Metadata:
          title           : End Credits
        Chapter #0.4: start 1380.651000, end 1410.965000
        Metadata:
          title           : Next Episode Preview
        Stream #0:0(jpn): Video: h264 (High), yuv420p, 960x720 [SAR 1:1 DAR 4:3], 23.98 fps, 23.98 tbr, 1k tbn, 47.95 tbc (default)
        Metadata:
          title           : First Movement - Invasion of the Capital
        Stream #0:1(eng): Audio: aac, 48000 Hz, 5.1, fltp (default)
        Metadata:
          title           : English Surround 5.1ch AAC
        Stream #0:2(eng): Audio: aac, 48000 Hz, stereo, fltp
        Metadata:
          title           : English Stereo 2ch AAC
        Stream #0:3(jpn): Audio: aac, 48000 Hz, stereo, fltp
        Metadata:
          title           : Japanese Stereo 2ch AAC
        Stream #0:4(eng): Subtitle: ssa (default)
        Metadata:
          title           : English Signs
        Stream #0:5(eng): Subtitle: ssa
        Metadata:
          title           : English Subtitles
    Codec 0x18000 is not in the full list.
        Stream #0:6: Attachment: unknown_codec
        Metadata:
          filename        : BRADHITC.TTF
          mimetype        : application/x-truetype-font
    Codec 0x18000 is not in the full list.
        Stream #0:7: Attachment: unknown_codec
        Metadata:
          filename        : calibri.ttf
          mimetype        : application/x-truetype-font
    Codec 0x18000 is not in the full list.
        Stream #0:8: Attachment: unknown_codec
        Metadata:
          filename        : CandelaBook_0.otf
          mimetype        : application/x-truetype-font
    Codec 0x18000 is not in the full list.
        Stream #0:9: Attachment: unknown_codec
        Metadata:
          filename        : GazelleFLF.ttf
          mimetype        : application/x-truetype-font
    Codec 0x18000 is not in the full list.
        Stream #0:10: Attachment: unknown_codec
        Metadata:
          filename        : HighlanderStd-Medium_0.otf
          mimetype        : application/x-truetype-font
    At least one output file must be specified
    
    <MEZZMO>: Child process ended with code: 109, ExitCode=1
    
    
    ---> DB Level Info: 41, 100
    ---> Frame rate: 23.98
    ---> Aspect ratio: 4:3

  4. #4
    Join Date
    Nov 2007
    Location
    Melbourne, Australia
    Posts
    11,616

    Default

    Thanks for the information. We'll create a new LG 2013 TV device profile since it has different support to other models. I'll need one more thing from you. Please turn on logging (see http://forum.conceiva.com/showthread...nostic-logging) and restart your Mezzmo server. Connect to Mezzmo from your LG TV and try to play an MKV. When it fails, stop your Mezzmo server and exit Mezzmo. Zip up all the logs and email them to us at support [at] conceiva [dot] com. Once we get these logs, we'll email you a device profile to try.

    Mezzmo Android: Install it on your tablet, smartphone, Android TV or Amazon Fire to browse and stream files from your Mezzmo library to all your devices. Full details at http://www.conceiva.com/products/mez...mo_android.asp
    Mezzmo for Kodi Add-on: Install it into Kodi to stream files from your Mezzmo library directly in Kodi. Full details at http://www.mezzmo.com/wiki/doku.php?...odi_user_guide
    Mezzmo for Roku App: Install it onto your Roku to stream files from your Mezzmo library. Full details at http://www.mezzmo.com/wiki/doku.php?...oku_user_guide
    Wiki: User Guides & Reference Manual at http://www.mezzmo.com/wiki
    Facebook: http://www.facebook.com/Mezzmo.DLNA.Server
    Twitter: https://twitter.com/conceiva_mezzmo
    Web: http://www.mezzmo.com

Similar Threads

  1. Sony BDP S580 Update and Playback Issues
    By hangnail in forum Mezzmo Questions and Support
    Replies: 23
    Last Post: 11-05-2012, 04:02 PM
  2. playback issues
    By Dissident in forum Mezzmo Questions and Support
    Replies: 4
    Last Post: 12-20-2011, 04:39 PM
  3. Div X playback issues on Samsung 3D television UE40C8000 Device
    By roughoutthere in forum Mezzmo Questions and Support
    Replies: 1
    Last Post: 11-28-2011, 09:00 AM
  4. LG BD670 Display, Connection and playback issues.
    By Slyck in forum Mezzmo Questions and Support
    Replies: 29
    Last Post: 08-26-2011, 09:16 AM
  5. Various playback issues on two different players
    By kaotik78 in forum Mezzmo Questions and Support
    Replies: 3
    Last Post: 04-05-2011, 09:07 AM

Tags for this Thread

Bookmarks

Posting Permissions

  • You may not post new threads
  • You may not post replies
  • You may not post attachments
  • You may not edit your posts
  •