Results 1 to 4 of 4

Thread: Improved profile for Panasonic TX-L32E6B (2013 model)?

  1. #1
    Join Date
    Jan 2012
    Posts
    52

    Default Improved profile for Panasonic TX-L32E6B (2013 model)?

    Hi,
    I've just bought a new Panasonic Viera TX-L32E6B, and whilst Mezzmo is able to stream most (all?) of my media files to it, there would appear to be a significant number of files that it has to transcode. Compared to my 2011 TX-P42GT30B (which uses the Panasonic Viera [2011, DTS] profile) I would say the majority of videos have to be transcoded before they will display on the E6B. My hunch is that the problem lies in the fact that a lot of the films have a DTS soundtrack, as well as AC-3 and/or Dolby Digital tracks.

    If I stream the same files from a Twonky server (which does not support transcoding) the files play correctly with the DTS track. I know I could switch to the same profile as the GT30B, but that would then mean that FLAC music files would be converted to MP3 .

    Also I have observed some odd behaviour with V3.3. I have the Viera preview option enabled. If I attempt to open a film that requires transcoding BEFORE the preview starts, I often get an 'Unsupported File' message and Mezzmo simply opens the next file that does NOT require transcoding. However, if I let the Preview windows start and THEN open the movie, the file streams ok.

    I'm using V3.3 and I've sent in log files to Support via email.

    FFMpeg info for some of the affected files are :-
    Film 1 - this movie has a DTS track (preferred)
    ffmpeg version N-50460-g393dcbf Copyright (c) 2000-2013 the FFmpeg developers
    built on Jun 27 2013 17:20:20 with gcc 4.6.2 (GCC)
    configuration: --enable-memalign-hack --arch=x86_64 --target-os=mingw32 --cross-prefix=x86_64-w64-mingw32- --enable-static --disable-shared --enable-zlib --disable-postproc --prefix=/home/peter/ffmpeg/build/gpl64 --enable-libmp3lame --enable-libx264 --enable-gpl --extra-libs='-lx264 -lpthread' --enable-runtime-cpudetect --extra-cflags=-I/home/peter/cc64/include --extra-ldflags=-L/home/peter/cc64/lib --pkg-config=pkg-config --disable-w32threads --enable-zlib
    libavutil 52. 17.103 / 52. 17.103
    libavcodec 54. 92.100 / 54. 92.100
    libavformat 54. 63.102 / 54. 63.102
    libavdevice 54. 3.103 / 54. 3.103
    libavfilter 3. 41.100 / 3. 41.100
    libswscale 2. 2.100 / 2. 2.100
    libswresample 0. 17.102 / 0. 17.102
    Input #0, matroska,webm, from '\\Nas\multimedia\1. Films\Animation\Toy Story 3\Toy Story 3 - 3. Main Movie.bdrip.mkv':
    Metadata:
    creation_time : 2013-04-18 08:06:26
    TITLE : Toy Story 3 (Disc 1)
    Duration: 01:42:33.37, start: 0.000000, bitrate: 8868 kb/s
    Chapter #0.0: start 0.000000, end 293.584956
    Metadata:
    title : Chapter 1
    Chapter #0.1: start 293.584956, end 380.254867
    Metadata:
    title : Chapter 2
    Chapter #0.2: start 380.254867, end 697.405033
    Metadata:
    title : Chapter 3
    Chapter #0.3: start 697.405033, end 917.291367
    Metadata:
    title : Chapter 4
    Chapter #0.4: start 917.291367, end 1114.279833
    Metadata:
    title : Chapter 5
    Chapter #0.5: start 1114.279833, end 1163.871033
    Metadata:
    title : Chapter 6
    Chapter #0.6: start 1163.871033, end 1577.117200
    Metadata:
    title : Chapter 7
    Chapter #0.7: start 1577.117200, end 1739.529456
    Metadata:
    title : Chapter 8
    Chapter #0.8: start 1739.529456, end 1907.822578
    Metadata:
    title : Chapter 9
    Chapter #0.9: start 1907.822578, end 2002.333667
    Metadata:
    title : Chapter 10
    Chapter #0.10: start 2002.333667, end 2150.064578
    Metadata:
    title : Chapter 11
    Chapter #0.11: start 2150.064578, end 2250.122867
    Metadata:
    title : Chapter 12
    Chapter #0.12: start 2250.122867, end 2411.325578
    Metadata:
    title : Chapter 13
    Chapter #0.13: start 2411.325578, end 2472.636833
    Metadata:
    title : Chapter 14
    Chapter #0.14: start 2472.636833, end 2617.489867
    Metadata:
    title : Chapter 15
    Chapter #0.15: start 2617.489867, end 2689.269911
    Metadata:
    title : Chapter 16
    Chapter #0.16: start 2689.269911, end 2899.521622
    Metadata:
    title : Chapter 17
    Chapter #0.17: start 2899.521622, end 3148.061578
    Metadata:
    title : Chapter 18
    Chapter #0.18: start 3148.061578, end 3232.020456
    Metadata:
    title : Chapter 19
    Chapter #0.19: start 3232.020456, end 3431.970200
    Metadata:
    title : Chapter 20
    Chapter #0.20: start 3431.970200, end 3500.705533
    Metadata:
    title : Chapter 21
    Chapter #0.21: start 3500.705533, end 3669.999667
    Metadata:
    title : Chapter 22
    Chapter #0.22: start 3669.999667, end 3726.639578
    Metadata:
    title : Chapter 23
    Chapter #0.23: start 3726.639578, end 3777.023244
    Metadata:
    title : Chapter 24
    Chapter #0.24: start 3777.023244, end 3995.032700
    Metadata:
    title : Chapter 25
    Chapter #0.25: start 3995.032700, end 4281.735789
    Metadata:
    title : Chapter 26
    Chapter #0.26: start 4281.735789, end 4557.261033
    Metadata:
    title : Chapter 27
    Chapter #0.27: start 4557.261033, end 4655.817833
    Metadata:
    title : Chapter 28
    Chapter #0.28: start 4655.817833, end 4783.195078
    Metadata:
    title : Chapter 29
    Chapter #0.29: start 4783.195078, end 4981.935289
    Metadata:
    title : Chapter 30
    Chapter #0.30: start 4981.935289, end 5099.594500
    Metadata:
    title : Chapter 31
    Chapter #0.31: start 5099.594500, end 5295.581956
    Metadata:
    title : Chapter 32
    Chapter #0.32: start 5295.581956, end 5658.277622
    Metadata:
    title : Chapter 33
    Chapter #0.33: start 5658.277622, end 6153.365000
    Metadata:
    title : Chapter 34
    Stream #0:0(eng): Video: h264 (High), yuv420p, 1920x1072 [SAR 134:135 DAR 16:9], SAR 127:128 DAR 1905:1072, 23.98 fps, 23.98 tbr, 1k tbn, 47.95 tbc (default)
    Stream #0:1(eng): Audio: dts (DTS), 48000 Hz, 5.1(side), fltp, 1536 kb/s
    Metadata:
    title : 3/2+1
    At least one output file must be specified

    <MEZZMO>: Child process ended with code: 109, ExitCode=1


    ---> DB Level Info: 40, 100
    ---> Frame rate: 23.98
    ---> Aspect ratio: 1905:1072

    Film 2: No DTS, but did cause a transcoding error when opening before Preview window started:
    ffmpeg version N-50460-g393dcbf Copyright (c) 2000-2013 the FFmpeg developers
    built on Jun 27 2013 17:20:20 with gcc 4.6.2 (GCC)
    configuration: --enable-memalign-hack --arch=x86_64 --target-os=mingw32 --cross-prefix=x86_64-w64-mingw32- --enable-static --disable-shared --enable-zlib --disable-postproc --prefix=/home/peter/ffmpeg/build/gpl64 --enable-libmp3lame --enable-libx264 --enable-gpl --extra-libs='-lx264 -lpthread' --enable-runtime-cpudetect --extra-cflags=-I/home/peter/cc64/include --extra-ldflags=-L/home/peter/cc64/lib --pkg-config=pkg-config --disable-w32threads --enable-zlib
    libavutil 52. 17.103 / 52. 17.103
    libavcodec 54. 92.100 / 54. 92.100
    libavformat 54. 63.102 / 54. 63.102
    libavdevice 54. 3.103 / 54. 3.103
    libavfilter 3. 41.100 / 3. 41.100
    libswscale 2. 2.100 / 2. 2.100
    libswresample 0. 17.102 / 0. 17.102
    Input #0, matroska,webm, from '\\Nas\multimedia\1. Films\Western\Butch Cassidy and The Sundance Kid.mkv':
    Metadata:
    creation_time : 2013-04-25 07:49:12
    Duration: 01:45:57.09, start: 0.000000, bitrate: 2973 kb/s
    Chapter #0.0: start 0.000000, end 169.184000
    Metadata:
    title : Chapter 1
    Chapter #0.1: start 169.184000, end 300.664000
    Metadata:
    title : Chapter 2
    Chapter #0.2: start 300.664000, end 523.104000
    Metadata:
    title : Chapter 3
    Chapter #0.3: start 523.104000, end 659.984000
    Metadata:
    title : Chapter 4
    Chapter #0.4: start 659.984000, end 900.304000
    Metadata:
    title : Chapter 5
    Chapter #0.5: start 900.304000, end 1054.424000
    Metadata:
    title : Chapter 6
    Chapter #0.6: start 1054.424000, end 1317.264000
    Metadata:
    title : Chapter 7
    Chapter #0.7: start 1317.264000, end 1509.544000
    Metadata:
    title : Chapter 8
    Chapter #0.8: start 1509.544000, end 1809.704000
    Metadata:
    title : Chapter 9
    Chapter #0.9: start 1809.704000, end 1970.584000
    Metadata:
    title : Chapter 10
    Chapter #0.10: start 1970.584000, end 2197.384000
    Metadata:
    title : Chapter 11
    Chapter #0.11: start 2197.384000, end 2344.304000
    Metadata:
    title : Chapter 12
    Chapter #0.12: start 2344.304000, end 2677.424000
    Metadata:
    title : Chapter 13
    Chapter #0.13: start 2677.424000, end 2826.904000
    Metadata:
    title : Chapter 14
    Chapter #0.14: start 2826.904000, end 3074.024000
    Metadata:
    title : Chapter 15
    Chapter #0.15: start 3074.024000, end 3509.344000
    Metadata:
    title : Chapter 16
    Chapter #0.16: start 3509.344000, end 3823.064000
    Metadata:
    title : Chapter 17
    Chapter #0.17: start 3823.064000, end 4013.544000
    Metadata:
    title : Chapter 18
    Chapter #0.18: start 4013.544000, end 4270.864000
    Metadata:
    title : Chapter 19
    Chapter #0.19: start 4270.864000, end 4732.544000
    Metadata:
    title : Chapter 20
    Chapter #0.20: start 4732.544000, end 5415.264000
    Metadata:
    title : Chapter 21
    Chapter #0.21: start 5415.264000, end 5555.704000
    Metadata:
    title : Chapter 22
    Chapter #0.22: start 5555.704000, end 5704.064000
    Metadata:
    title : Chapter 23
    Chapter #0.23: start 5704.064000, end 6357.088000
    Metadata:
    title : Chapter 24
    Stream #0:0(eng): Video: h264 (High), yuv420p, 720x432 [SAR 22912:16425 DAR 22912:9855], SAR 251:180 DAR 251:108, 25 fps, 25 tbr, 1k tbn, 180k tbc (default)
    Stream #0:1(eng): Audio: ac3, 48000 Hz, stereo, fltp, 192 kb/s (default)
    At least one output file must be specified

    <MEZZMO>: Child process ended with code: 109, ExitCode=1


    ---> DB Level Info: 31, 100
    ---> Frame rate: 25.00
    ---> Aspect ratio: 251:108

    Cheers
    Bodders

  2. #2
    Join Date
    Nov 2007
    Location
    Melbourne, Australia
    Posts
    11,646

    Default

    Thanks, Bodders. We'll analyse the logs shortly and create a Panasonic Viera 2013 models device profile. When we're done, we'll email it to you to try.

    Mezzmo Android: Install it on your tablet, smartphone, Android TV or Amazon Fire to browse and stream files from your Mezzmo library to all your devices. Full details at http://www.conceiva.com/products/mez...mo_android.asp
    Mezzmo for Kodi Add-on: Install it into Kodi to stream files from your Mezzmo library directly in Kodi. Full details at http://www.mezzmo.com/wiki/doku.php?...odi_user_guide
    Mezzmo for Roku App: Install it onto your Roku to stream files from your Mezzmo library. Full details at http://www.mezzmo.com/wiki/doku.php?...oku_user_guide
    Wiki: User Guides & Reference Manual at http://www.mezzmo.com/wiki
    Facebook: http://www.facebook.com/Mezzmo.DLNA.Server
    Twitter: https://twitter.com/conceiva_mezzmo
    Web: http://www.mezzmo.com

  3. #3
    Join Date
    Jan 2012
    Posts
    52

    Default

    Having to re-send as the message expired/timed-out. In another thread you referred to some recent email server issues, so I'll try again :-)

    Bodders

  4. #4
    Join Date
    Nov 2007
    Location
    Melbourne, Australia
    Posts
    11,646

    Default

    Got your logs via email - thanks.

    Mezzmo Android: Install it on your tablet, smartphone, Android TV or Amazon Fire to browse and stream files from your Mezzmo library to all your devices. Full details at http://www.conceiva.com/products/mez...mo_android.asp
    Mezzmo for Kodi Add-on: Install it into Kodi to stream files from your Mezzmo library directly in Kodi. Full details at http://www.mezzmo.com/wiki/doku.php?...odi_user_guide
    Mezzmo for Roku App: Install it onto your Roku to stream files from your Mezzmo library. Full details at http://www.mezzmo.com/wiki/doku.php?...oku_user_guide
    Wiki: User Guides & Reference Manual at http://www.mezzmo.com/wiki
    Facebook: http://www.facebook.com/Mezzmo.DLNA.Server
    Twitter: https://twitter.com/conceiva_mezzmo
    Web: http://www.mezzmo.com

Similar Threads

  1. Issues with playback on 2013 model LG 50LA6230
    By illuzian in forum Mezzmo Questions and Support
    Replies: 3
    Last Post: 07-31-2013, 08:56 AM
  2. Device profile for Samsung Smart TV ES model
    By ccrudup in forum Mezzmo Questions and Support
    Replies: 4
    Last Post: 03-05-2013, 05:48 AM
  3. Panasonic Viera model 2009
    By richi207 in forum Mezzmo Questions and Support
    Replies: 6
    Last Post: 07-13-2012, 04:47 PM
  4. Panasonic Viera 2011 model, quick question.
    By Dr.Phill in forum Mezzmo Questions and Support
    Replies: 1
    Last Post: 07-12-2012, 07:02 AM
  5. Profile for panasonic tc-L47E50
    By mws0019 in forum Mezzmo Questions and Support
    Replies: 6
    Last Post: 07-03-2012, 10:13 AM

Tags for this Thread

Bookmarks

Posting Permissions

  • You may not post new threads
  • You may not post replies
  • You may not post attachments
  • You may not edit your posts
  •