Results 1 to 7 of 7

Thread: Trancoding Problem

  1. #1

    Default Trancoding Problem

    Hi,

    I have one problem since update to Mezzmo 3.3.0.0

    I will show movie on TV it will transcode on the fly but its to slow 11-25fps.
    If i pre transcode on Mezzmo Software it works fine with 700-890fps.

    I have Sony Bravia KDL-55HX750 and before update it works fine.

    I updated ffmpeg32 and ffmpeg64 and i choose ffmpeg64. Problem with both.

    2.jpg1.jpg

    Thanks
    Regards

  2. #2
    Join Date
    Nov 2007
    Location
    Melbourne, Australia
    Posts
    11,646

    Default

    Please tell us the device profile you are using for your TV. Go to the Media Devices dialog to see this. Also, post the FFmpeg information for the video. Right-click on the video in Mezzmo and click 'Get FFmpeg Information'.

    Mezzmo Android: Install it on your tablet, smartphone, Android TV or Amazon Fire to browse and stream files from your Mezzmo library to all your devices. Full details at http://www.conceiva.com/products/mez...mo_android.asp
    Mezzmo for Kodi Add-on: Install it into Kodi to stream files from your Mezzmo library directly in Kodi. Full details at http://www.mezzmo.com/wiki/doku.php?...odi_user_guide
    Mezzmo for Roku App: Install it onto your Roku to stream files from your Mezzmo library. Full details at http://www.mezzmo.com/wiki/doku.php?...oku_user_guide
    Wiki: User Guides & Reference Manual at http://www.mezzmo.com/wiki
    Facebook: http://www.facebook.com/Mezzmo.DLNA.Server
    Twitter: https://twitter.com/conceiva_mezzmo
    Web: http://www.mezzmo.com

  3. #3

    Default

    Hi,

    I use the standard profile - Sony Bravia KDL (2012 Models)

    ffmpeg version N-55607-g2c1a215 Copyright (c) 2000-2013 the FFmpeg developers
    built on Aug 16 2013 20:15:01 with gcc 4.7.3 (GCC)
    configuration: --enable-gpl --enable-version3 --disable-w32threads --enable-avisynth --enable-bzlib --enable-fontconfig --enable-frei0r --enable-gnutls --enable-iconv --enable-libass --enable-libbluray --enable-libcaca --enable-libfreetype --enable-libgsm --enable-libilbc --enable-libmodplug --enable-libmp3lame --enable-libopencore-amrnb --enable-libopencore-amrwb --enable-libopenjpeg --enable-libopus --enable-librtmp --enable-libschroedinger --enable-libsoxr --enable-libspeex --enable-libtheora --enable-libtwolame --enable-libvo-aacenc --enable-libvo-amrwbenc --enable-libvorbis --enable-libvpx --enable-libx264 --enable-libxavs --enable-libxvid --enable-zlib
    libavutil 52. 42.100 / 52. 42.100
    libavcodec 55. 28.100 / 55. 28.100
    libavformat 55. 13.103 / 55. 13.103
    libavdevice 55. 3.100 / 55. 3.100
    libavfilter 3. 82.100 / 3. 82.100
    libswscale 2. 5.100 / 2. 5.100
    libswresample 0. 17.103 / 0. 17.103
    libpostproc 52. 3.100 / 52. 3.100
    Input #0, matroska,webm, from 'F:\HD Filme\A.mkv':
    Metadata:
    title : A
    creation_time : 2010-11-19 08:14:18
    Duration: 02:58:09.80, start: 0.000000, bitrate: 9250 kb/s
    Stream #0:0: Video: h264 (High), yuv420p, 1920x1080, SAR 1:1 DAR 16:9, 23.98 fps, 23.98 tbr, 1k tbn, 47.95 tbc (default)
    Metadata:
    title : A
    Stream #0:1(ger): Audio: dts (DTS), 48000 Hz, 5.1(side), fltp, 768 kb/s (default)
    Metadata:
    title : DTS
    Stream #0:2(ger): Subtitle: subrip (default)
    Metadata:
    title : Forced Subs
    At least one output file must be specified

    <MEZZMO>: Child process ended with code: 109, ExitCode=1


    ---> DB Level Info: 41, 100
    ---> Frame rate: 23,98
    ---> Aspect ratio: 16:9

    ################################################## ##

    ffmpeg version N-55607-g2c1a215 Copyright (c) 2000-2013 the FFmpeg developers
    built on Aug 16 2013 20:15:01 with gcc 4.7.3 (GCC)
    configuration: --enable-gpl --enable-version3 --disable-w32threads --enable-avisynth --enable-bzlib --enable-fontconfig --enable-frei0r --enable-gnutls --enable-iconv --enable-libass --enable-libbluray --enable-libcaca --enable-libfreetype --enable-libgsm --enable-libilbc --enable-libmodplug --enable-libmp3lame --enable-libopencore-amrnb --enable-libopencore-amrwb --enable-libopenjpeg --enable-libopus --enable-librtmp --enable-libschroedinger --enable-libsoxr --enable-libspeex --enable-libtheora --enable-libtwolame --enable-libvo-aacenc --enable-libvo-amrwbenc --enable-libvorbis --enable-libvpx --enable-libx264 --enable-libxavs --enable-libxvid --enable-zlib
    libavutil 52. 42.100 / 52. 42.100
    libavcodec 55. 28.100 / 55. 28.100
    libavformat 55. 13.103 / 55. 13.103
    libavdevice 55. 3.100 / 55. 3.100
    libavfilter 3. 82.100 / 3. 82.100
    libswscale 2. 5.100 / 2. 5.100
    libswresample 0. 17.103 / 0. 17.103
    libpostproc 52. 3.100 / 52. 3.100
    Input #0, matroska,webm, from 'F:\HD Filme\B.mkv':
    Metadata:
    title : B
    creation_time : 2010-05-26 17:10:28
    Duration: 01:58:51.12, start: 0.000000, bitrate: 5263 kb/s
    Chapter #0.0: start 0.000000, end 397.105000
    Metadata:
    title : 00:00:00.000
    Chapter #0.1: start 397.105000, end 929.303000
    Metadata:
    title : 00:06:37.105
    Chapter #0.2: start 929.303000, end 1250.875000
    Metadata:
    title : 00:15:29.303
    Chapter #0.3: start 1250.875000, end 1751.416000
    Metadata:
    title : 00:20:50.875
    Chapter #0.4: start 1751.416000, end 2119.993000
    Metadata:
    title : 00:29:11.416
    Chapter #0.5: start 2119.993000, end 2539.787000
    Metadata:
    title : 00:35:19.993
    Chapter #0.6: start 2539.787000, end 3059.056000
    Metadata:
    title : 00:42:19.787
    Chapter #0.7: start 3059.056000, end 3555.719000
    Metadata:
    title : 00:50:59.056
    Chapter #0.8: start 3555.719000, end 3870.867000
    Metadata:
    title : 00:59:15.719
    Chapter #0.9: start 3870.867000, end 4430.801000
    Metadata:
    title : 01:04:30.867
    Chapter #0.10: start 4430.801000, end 4782.486000
    Metadata:
    title : 01:13:50.801
    Chapter #0.11: start 4782.486000, end 5279.524000
    Metadata:
    title : 01:19:42.486
    Chapter #0.12: start 5279.524000, end 5605.725000
    Metadata:
    title : 01:27:59.524
    Chapter #0.13: start 5605.725000, end 6080.616000
    Metadata:
    title : 01:33:25.725
    Chapter #0.14: start 6080.616000, end 6528.689000
    Metadata:
    title : 01:41:20.616
    Chapter #0.15: start 6528.689000, end 7131.115000
    Metadata:
    title : 01:48:48.689
    Stream #0:0: Video: h264 (High), yuv420p, 1280x696 [SAR 1:1 DAR 160:87], 23.98 fps, 23.98 tbr, 1k tbn, 47.95 tbc (default)
    Metadata:
    title : B
    Stream #0:1(ger): Audio: dts (DTS), 48000 Hz, 5.1(side), fltp, 1536 kb/s (default)
    Metadata:
    title : DTS
    Stream #0:2(ger): Subtitle: subrip (default)
    Metadata:
    title : Forced subs
    At least one output file must be specified

    <MEZZMO>: Child process ended with code: 109, ExitCode=1


    ---> DB Level Info: 41, 100
    ---> Frame rate: 23,98
    ---> Aspect ratio: 160:87

    I have the Problem with all my matroska movies, but only on the fly.

    On The Fly Transcoding from the same Mezzmo with Panasonic TV works with 1100fps.

    Always if i update my mezzmo i have problem with transcoding.
    Thanks

    EDIT: I deinstalled 3.3.0.0 and installed 3.2.0.0 and my Sony works fine with transcode on the fly 700-800fps.
    Problem in new Software?
    Last edited by hardstylemaster; 08-26-2013 at 09:48 AM.

  4. #4
    Join Date
    Nov 2007
    Location
    Melbourne, Australia
    Posts
    11,646

    Default

    Thanks for the information. Please email us at support [at] conceiva [dot] com and we'll provide a tweaked device profile that should fix the problem.

    Mezzmo Android: Install it on your tablet, smartphone, Android TV or Amazon Fire to browse and stream files from your Mezzmo library to all your devices. Full details at http://www.conceiva.com/products/mez...mo_android.asp
    Mezzmo for Kodi Add-on: Install it into Kodi to stream files from your Mezzmo library directly in Kodi. Full details at http://www.mezzmo.com/wiki/doku.php?...odi_user_guide
    Mezzmo for Roku App: Install it onto your Roku to stream files from your Mezzmo library. Full details at http://www.mezzmo.com/wiki/doku.php?...oku_user_guide
    Wiki: User Guides & Reference Manual at http://www.mezzmo.com/wiki
    Facebook: http://www.facebook.com/Mezzmo.DLNA.Server
    Twitter: https://twitter.com/conceiva_mezzmo
    Web: http://www.mezzmo.com

  5. #5
    Join Date
    Oct 2012
    Posts
    2

    Default

    Hello

    I have same problem with my Sony KDL 40EX500 (profile Sony Bravia KDL 2010 models). With mezzmo 3.2 it works fine (it transcode on-the-fly pretty fast) but with version 3.3 slow.

    BR
    bruno6

  6. #6
    Join Date
    Nov 2007
    Location
    Melbourne, Australia
    Posts
    11,646

    Default

    Please upgrade to the latest version (v3.4) and try again. If that is no better, then turn on logging (see http://forum.conceiva.com/showthread...nostic-logging) and restart your Mezzmo server. Reproduce the problem you mention and then stop your Mezzmo server and exit Mezzmo. Zip up all the logs and email them to us at support [at] conceiva [dot] com.

    Mezzmo Android: Install it on your tablet, smartphone, Android TV or Amazon Fire to browse and stream files from your Mezzmo library to all your devices. Full details at http://www.conceiva.com/products/mez...mo_android.asp
    Mezzmo for Kodi Add-on: Install it into Kodi to stream files from your Mezzmo library directly in Kodi. Full details at http://www.mezzmo.com/wiki/doku.php?...odi_user_guide
    Mezzmo for Roku App: Install it onto your Roku to stream files from your Mezzmo library. Full details at http://www.mezzmo.com/wiki/doku.php?...oku_user_guide
    Wiki: User Guides & Reference Manual at http://www.mezzmo.com/wiki
    Facebook: http://www.facebook.com/Mezzmo.DLNA.Server
    Twitter: https://twitter.com/conceiva_mezzmo
    Web: http://www.mezzmo.com

  7. #7
    Join Date
    Sep 2009
    Posts
    2,589

    Default

    We have found a problem when matching the framerate of the file to the device profile, this has now been resolved, if you have already updated to 3.4.0.0 you can download the installer from our website and run it to repair your installation files and get the changes.

    Mezzmo Android: Install it on your tablet, smartphone, Android TV or Amazon Fire to browse and stream files from your Mezzmo library to all your devices. Full details at http://www.conceiva.com/products/mez...mo_android.asp
    Mezzmo for Kodi Add-on: Install it into Kodi to stream files from your Mezzmo library directly in Kodi. Full details at http://www.mezzmo.com/wiki/doku.php?...odi_user_guide
    Mezzmo for Roku App: Install it onto your Roku to stream files from your Mezzmo library. Full details at http://www.mezzmo.com/wiki/doku.php?...oku_user_guide
    Wiki: User Guides & Reference Manual at http://www.mezzmo.com/wiki
    Facebook: http://www.facebook.com/Mezzmo.DLNA.Server
    Twitter: https://twitter.com/conceiva_mezzmo
    Web: http://www.mezzmo.com

Similar Threads

  1. Problem with 3.0.2
    By HomerRamone in forum Mezzmo Questions and Support
    Replies: 6
    Last Post: 03-19-2013, 02:13 PM
  2. I Have A Library Problem
    By tyler78 in forum Mezzmo Questions and Support
    Replies: 1
    Last Post: 12-13-2012, 11:21 AM
  3. PS3 No Sound trancoding MKV files only on a small number of titles
    By dpuckett in forum Mezzmo Questions and Support
    Replies: 1
    Last Post: 03-01-2012, 10:17 AM
  4. I think that I have a problem with the transcoding
    By huvince in forum Mezzmo Questions and Support
    Replies: 5
    Last Post: 01-19-2011, 09:34 AM
  5. Problem with TS files
    By LedFanCDN in forum Mezzmo Questions and Support
    Replies: 3
    Last Post: 10-03-2010, 10:57 AM

Tags for this Thread

Bookmarks

Posting Permissions

  • You may not post new threads
  • You may not post replies
  • You may not post attachments
  • You may not edit your posts
  •