Results 1 to 7 of 7

Thread: Problem on Panasonioc TC-P50ST30 with recent avi files

  1. #1

    Default Problem on Panasonioc TC-P50ST30 with recent avi files

    I have an issue with my Panasonic TC-P50ST30 (Mfg. November 2011)

    I have the profile "Panasonic Viera (2011 models)", and Mezzmo configured under Transcoding with "Transcode incompatible media files so they can be played on this device" box checked.

    On some recent 2013 avi movies, the Panasonic displays "Cannot read file".

    Is there a Device Profile tweak available for this Panasonic model that would solve this problem?

  2. #2
    Join Date
    Nov 2007
    Location
    Melbourne, Australia
    Posts
    11,616

    Default

    Please post the FFmpeg information for the files that do not play. Right-click on the video in Mezzmo and click 'Get FFmpeg Information'.

    Mezzmo Android: Install it on your tablet, smartphone, Android TV or Amazon Fire to browse and stream files from your Mezzmo library to all your devices. Full details at http://www.conceiva.com/products/mez...mo_android.asp
    Mezzmo for Kodi Add-on: Install it into Kodi to stream files from your Mezzmo library directly in Kodi. Full details at http://www.mezzmo.com/wiki/doku.php?...odi_user_guide
    Mezzmo for Roku App: Install it onto your Roku to stream files from your Mezzmo library. Full details at http://www.mezzmo.com/wiki/doku.php?...oku_user_guide
    Wiki: User Guides & Reference Manual at http://www.mezzmo.com/wiki
    Facebook: http://www.facebook.com/Mezzmo.DLNA.Server
    Twitter: https://twitter.com/conceiva_mezzmo
    Web: http://www.mezzmo.com

  3. #3

    Default

    ffmpeg version N-50460-g393dcbf Copyright (c) 2000-2013 the FFmpeg developers
    built on Jun 27 2013 17:34:56 with gcc 4.6.2 (GCC)
    configuration: --enable-memalign-hack --arch=x86 --target-os=mingw32 --cross-prefix=i686-w64-mingw32- --enable-static --disable-shared --enable-zlib --disable-postproc --prefix=/home/peter/ffmpeg/build/gpl32 --enable-libmp3lame --enable-libx264 --enable-gpl --extra-libs='-lx264 -lpthread' --enable-runtime-cpudetect --extra-cflags=-I/home/peter/cc32/include --extra-ldflags=-L/home/peter/cc32/lib --pkg-config=pkg-config --disable-w32threads --enable-zlib
    libavutil 52. 17.103 / 52. 17.103
    libavcodec 54. 92.100 / 54. 92.100
    libavformat 54. 63.102 / 54. 63.102
    libavdevice 54. 3.103 / 54. 3.103
    libavfilter 3. 41.100 / 3. 41.100
    libswscale 2. 2.100 / 2. 2.100
    libswresample 0. 17.102 / 0. 17.102
    [mpeg4 @ 015e08e0] Invalid and inefficient vfw-avi packed B frames detected
    Input #0, avi, from 'E:\MultiMedia\Movies\2013\2013 A Good Day to Die Hard\2013 A Good Day To Die Hard.avi':
    Duration: 01:31:03.04, start: 0.000000, bitrate: 1732 kb/s
    Stream #0:0: Video: mpeg4 (Advanced Simple Profile) (XVID / 0x44495658), yuv420p, 720x384 [SAR 1:1 DAR 15:8], 25 tbr, 25 tbn, 25 tbc
    Stream #0:1: Audio: mp3 (U[0][0][0] / 0x0055), 48000 Hz, stereo, s16p, 128 kb/s
    At least one output file must be specified

    <MEZZMO>: Child process ended with code: 109, ExitCode=1


    ---> DB Level Info: 5, 15
    ---> Frame rate: 25.00
    ---> Aspect ratio: 15:8 PAR=1:1

  4. #4

    Default

    Here is another:

    ffmpeg version N-50460-g393dcbf Copyright (c) 2000-2013 the FFmpeg developers
    built on Jun 27 2013 17:34:56 with gcc 4.6.2 (GCC)
    configuration: --enable-memalign-hack --arch=x86 --target-os=mingw32 --cross-prefix=i686-w64-mingw32- --enable-static --disable-shared --enable-zlib --disable-postproc --prefix=/home/peter/ffmpeg/build/gpl32 --enable-libmp3lame --enable-libx264 --enable-gpl --extra-libs='-lx264 -lpthread' --enable-runtime-cpudetect --extra-cflags=-I/home/peter/cc32/include --extra-ldflags=-L/home/peter/cc32/lib --pkg-config=pkg-config --disable-w32threads --enable-zlib
    libavutil 52. 17.103 / 52. 17.103
    libavcodec 54. 92.100 / 54. 92.100
    libavformat 54. 63.102 / 54. 63.102
    libavdevice 54. 3.103 / 54. 3.103
    libavfilter 3. 41.100 / 3. 41.100
    libswscale 2. 2.100 / 2. 2.100
    libswresample 0. 17.102 / 0. 17.102
    Input #0, avi, from 'E:\MultiMedia\Movies\2009\2009 Sherlock Holmes\2009 Sherlock Holmes Movie.avi':
    Duration: 02:08:38.39, start: 0.000000, bitrate: 2406 kb/s
    Stream #0:0: Video: mpeg4 (Advanced Simple Profile) (XVID / 0x44495658), yuv420p, 720x384 [SAR 1:1 DAR 15:8], 23.98 tbr, 23.98 tbn, 23.98 tbc
    Stream #0:1: Audio: ac3 ([0] [0][0] / 0x2000), 48000 Hz, 5.1(side), fltp, 448 kb/s
    At least one output file must be specified

    <MEZZMO>: Child process ended with code: 109, ExitCode=1


    ---> DB Level Info: 5, 15
    ---> Frame rate: 23.98
    ---> Aspect ratio: 15:8

  5. #5
    Join Date
    Nov 2007
    Location
    Melbourne, Australia
    Posts
    11,616

    Default

    Change the device profile to 'Panasonic Viera (2011 models, NTSC)' in the Media Devices dialog and try streaming these files again.

    Mezzmo Android: Install it on your tablet, smartphone, Android TV or Amazon Fire to browse and stream files from your Mezzmo library to all your devices. Full details at http://www.conceiva.com/products/mez...mo_android.asp
    Mezzmo for Kodi Add-on: Install it into Kodi to stream files from your Mezzmo library directly in Kodi. Full details at http://www.mezzmo.com/wiki/doku.php?...odi_user_guide
    Mezzmo for Roku App: Install it onto your Roku to stream files from your Mezzmo library. Full details at http://www.mezzmo.com/wiki/doku.php?...oku_user_guide
    Wiki: User Guides & Reference Manual at http://www.mezzmo.com/wiki
    Facebook: http://www.facebook.com/Mezzmo.DLNA.Server
    Twitter: https://twitter.com/conceiva_mezzmo
    Web: http://www.mezzmo.com

  6. #6

    Default

    That worked perfect.

    Thanks again, Paul.

  7. #7
    Join Date
    Nov 2007
    Location
    Melbourne, Australia
    Posts
    11,616

    Default

    Thanks for posting back & confirming it works better.

    Mezzmo Android: Install it on your tablet, smartphone, Android TV or Amazon Fire to browse and stream files from your Mezzmo library to all your devices. Full details at http://www.conceiva.com/products/mez...mo_android.asp
    Mezzmo for Kodi Add-on: Install it into Kodi to stream files from your Mezzmo library directly in Kodi. Full details at http://www.mezzmo.com/wiki/doku.php?...odi_user_guide
    Mezzmo for Roku App: Install it onto your Roku to stream files from your Mezzmo library. Full details at http://www.mezzmo.com/wiki/doku.php?...oku_user_guide
    Wiki: User Guides & Reference Manual at http://www.mezzmo.com/wiki
    Facebook: http://www.facebook.com/Mezzmo.DLNA.Server
    Twitter: https://twitter.com/conceiva_mezzmo
    Web: http://www.mezzmo.com

Similar Threads

  1. Recent problem after update
    By mws0019 in forum Mezzmo Questions and Support
    Replies: 2
    Last Post: 10-03-2013, 05:29 PM
  2. avi problem
    By dejansa in forum Mezzmo Questions and Support
    Replies: 1
    Last Post: 11-21-2011, 09:39 AM
  3. Audio Codec detection and transcoding problem (Mostly avi with VBR)
    By christianclavet in forum Mezzmo Questions and Support
    Replies: 1
    Last Post: 02-09-2011, 07:57 AM
  4. Sony BDP-S370- DivX/XviD avi files stutter, MKV files work great
    By zelfred in forum Mezzmo Questions and Support
    Replies: 1
    Last Post: 02-04-2011, 03:22 PM
  5. AVI files with AC3 sound problem
    By MetZ in forum Mezzmo Questions and Support
    Replies: 13
    Last Post: 02-01-2008, 08:36 AM

Tags for this Thread

Bookmarks

Posting Permissions

  • You may not post new threads
  • You may not post replies
  • You may not post attachments
  • You may not edit your posts
  •