Results 1 to 5 of 5

Thread: Files no long play on xBox 360

  1. #1

    Default Files no long play on xBox 360

    I played movies a couple days ago that now get this error when I try to play them on the xbox 360. Any idea how to fix this?

    C:\Program Files (x86)\Conceiva\Mezzmo\ffmpeg.exe -y -i "M:\Pictures With Motion\HD\1080p\2001.A.Space.Odyssey.1968.1080p.Bl uRay.x264.anoXmous\2001.A.Space.Odyssey.1968.1080p .BluRay.x264.anoXmous_.mp4" -map 0:v:0 -map 0:a:0 -c:v:0 mpeg2video -b:v 12000000 -r 29.97 -copyts -filter:v "yadif,mezzmo=i=M:/01 Zombie_work_data/73DBA4DC\-58B6\-4754\-857D\-D35FA5E058D4/Video/1466\-mpegts\-mpeg2video\-ac3\-sb103.mzf|u=0xC0C0C0ff|p=1|r=0x44448Abb|g=0x578B57 bb" -pix_fmt yuv420p -copyinkf -sc_threshold 1000000000 -coder ac -qmin 1 -cmp 2 -subcmp 2 -flags +mv0 -mbd bits -c:a:0 ac3_fixed -ac 6 -ab 448000 -ar 48000 -sn -threads 0 -async 0 -f mpegts "M:\01 Zombie_work_data\73DBA4DC-58B6-4754-857D-D35FA5E058D4\Video\1466-mpegts-mpeg2video-ac3-sb103.mzt"

    ffmpeg version N-40693-gc457a29 Copyright (c) 2000-2012 the FFmpeg developers
    built on May 15 2012 12:57:14 with gcc 4.6.2
    configuration: --enable-memalign-hack --arch=x86 --target-os=mingw32 --cross-prefix=i686-w64-mingw32- --enable-static --disable-shared --enable-zlib --disable-postproc --prefix=/home/peter/ffmpeg/build/gpl --enable-libmp3lame --enable-libx264 --enable-gpl --extra-libs='-lx264 -lpthread' --enable-runtime-cpudetect --extra-cflags=-I/home/peter/cc/include --extra-ldflags=-L/home/peter/cc/lib --pkg-config=pkg-config --disable-w32threads
    libavutil 51. 51.100 / 51. 51.100
    libavcodec 54. 21.101 / 54. 21.101
    libavformat 54. 5.100 / 54. 5.100
    libavdevice 53. 4.100 / 53. 4.100
    libavfilter 2. 73.100 / 2. 73.100
    libswscale 2. 1.100 / 2. 1.100
    libswresample 0. 11.100 / 0. 11.100
    Input #0, mov,mp4,m4a,3gp,3g2,mj2, from 'M:\Pictures With Motion\HD\1080p\2001.A.Space.Odyssey.1968.1080p.Bl uRay.x264.anoXmous\2001.A.Space.Odyssey.1968.1080p .BluRay.x264.anoXmous_.mp4':
    Metadata:
    major_brand : isom
    minor_version : 1
    compatible_brands: isom
    creation_time : 2013-08-30 19:34:04
    Duration: 02:28:51.75, start: 0.000000, bitrate: 2471 kb/s
    Stream #0:0(und): Video: h264 (High) (avc1 / 0x31637661), yuv420p, 1920x864 [SAR 1:1 DAR 20:9], 1964 kb/s, 23.98 fps, 23.98 tbr, 24k tbn, 47.95 tbc
    Metadata:
    creation_time : 2013-08-30 17:18:43
    handler_name : GPAC ISO Video Handler
    Stream #0:1(eng): Audio: aac (mp4a / 0x6134706D), 48000 Hz, 5.1, s16, 376 kb/s
    Metadata:
    creation_time : 2013-08-30 15:33:14
    handler_name : Sound Media Handler
    Stream #0:2(eng): Audio: aac (mp4a / 0x6134706D), 48000 Hz, stereo, s16, 124 kb/s
    Metadata:
    creation_time : 2013-08-30 14:49:33
    handler_name : Sound Media Handler
    [buffer @ 0587ef80] w:1920 h:864 pixfmt:yuv420p tb:1/1000000 sar:1/1 sws_param:flags=2
    [buffersink @ 06560f80] No opaque field provided
    [yadif @ 06565b00] mode:0 parity:-1 auto_enable:0
    No such filter: 'mezzmo'
    Error opening filters!

    <MEZZMO>: Child process ended with code: 109, ExitCode=1

  2. #2
    Join Date
    Nov 2007
    Location
    Melbourne, Australia
    Posts
    11,616

    Default

    It could be that Mezzmo server cannot access your M:\ mapped drive since the drive mapping has been set for your Windows user account and Mezzmo server (by default) runs under Local System account. See this FAQ to fix this - http://forum.conceiva.com/showthread...r-home-network.

    Mezzmo Android: Install it on your tablet, smartphone, Android TV or Amazon Fire to browse and stream files from your Mezzmo library to all your devices. Full details at http://www.conceiva.com/products/mez...mo_android.asp
    Mezzmo for Kodi Add-on: Install it into Kodi to stream files from your Mezzmo library directly in Kodi. Full details at http://www.mezzmo.com/wiki/doku.php?...odi_user_guide
    Mezzmo for Roku App: Install it onto your Roku to stream files from your Mezzmo library. Full details at http://www.mezzmo.com/wiki/doku.php?...oku_user_guide
    Wiki: User Guides & Reference Manual at http://www.mezzmo.com/wiki
    Facebook: http://www.facebook.com/Mezzmo.DLNA.Server
    Twitter: https://twitter.com/conceiva_mezzmo
    Web: http://www.mezzmo.com

  3. #3

    Default

    It's a USB hard drive on my computer. These files played fine last week and now quit working since I made the full purchase. Could it be something with the update?

  4. #4

    Default

    It also says failed in the transcoding details section of Mezzmo. I think the only files that don't have to be transcoded work now as they are all on the same drive

  5. #5
    Join Date
    Nov 2007
    Location
    Melbourne, Australia
    Posts
    11,616

    Default

    Please click on the 'Failed' text in the Transcoding pane and copy the FFmpeg output. Email that to us at support [at] conceiva [dot] com. That is a good clue why your videos are not playing.

    Mezzmo Android: Install it on your tablet, smartphone, Android TV or Amazon Fire to browse and stream files from your Mezzmo library to all your devices. Full details at http://www.conceiva.com/products/mez...mo_android.asp
    Mezzmo for Kodi Add-on: Install it into Kodi to stream files from your Mezzmo library directly in Kodi. Full details at http://www.mezzmo.com/wiki/doku.php?...odi_user_guide
    Mezzmo for Roku App: Install it onto your Roku to stream files from your Mezzmo library. Full details at http://www.mezzmo.com/wiki/doku.php?...oku_user_guide
    Wiki: User Guides & Reference Manual at http://www.mezzmo.com/wiki
    Facebook: http://www.facebook.com/Mezzmo.DLNA.Server
    Twitter: https://twitter.com/conceiva_mezzmo
    Web: http://www.mezzmo.com

Similar Threads

  1. Replies: 10
    Last Post: 01-22-2014, 08:18 AM
  2. Streaming MKV files to XBox 360 results in Stereo and lost 5.1 Audio
    By Eurisko in forum Mezzmo Questions and Support
    Replies: 2
    Last Post: 12-18-2012, 11:46 PM
  3. xbox 360 unsupported format / wont play
    By white westie in forum Mezzmo Questions and Support
    Replies: 6
    Last Post: 02-28-2012, 09:08 AM
  4. dvr-ms files stuttering and playing in stereo on Xbox 360
    By beetlejuice in forum Mezzmo Questions and Support
    Replies: 1
    Last Post: 11-14-2011, 09:13 AM
  5. MKV Files stop playing on XBOX 360
    By mr.niceguy76 in forum Mezzmo Questions and Support
    Replies: 10
    Last Post: 02-21-2011, 04:36 PM

Tags for this Thread

Bookmarks

Posting Permissions

  • You may not post new threads
  • You may not post replies
  • You may not post attachments
  • You may not edit your posts
  •