Results 1 to 2 of 2

Thread: 3.3.4.0 buffering OK prior to 3.3.4.0 upgrade

  1. #1
    Join Date
    Nov 2013
    Posts
    1

    Default 3.3.4.0 buffering OK prior to 3.3.4.0 upgrade

    Since updating to 3.3.4.0 firstly when playing video sudden stop with "No Device connected" although it had been until this point.
    Following this buffering problems - never any with previous version. From other thread advice re-download of 3.3.4.0 and reinstall without prior uninstall : clicked for Repair. Still the same problem with buffering. Also after looking at other threads am providing the following info.:-
    ffmpeg version N-50460-g393dcbf Copyright (c) 2000-2013 the FFmpeg developers
    built on Jun 27 2013 17:34:56 with gcc 4.6.2 (GCC)
    configuration: --enable-memalign-hack --arch=x86 --target-os=mingw32 --cross-prefix=i686-w64-mingw32- --enable-static --disable-shared --enable-zlib --disable-postproc --prefix=/home/peter/ffmpeg/build/gpl32 --enable-libmp3lame --enable-libx264 --enable-gpl --extra-libs='-lx264 -lpthread' --enable-runtime-cpudetect --extra-cflags=-I/home/peter/cc32/include --extra-ldflags=-L/home/peter/cc32/lib --pkg-config=pkg-config --disable-w32threads --enable-zlib
    libavutil 52. 17.103 / 52. 17.103
    libavcodec 54. 92.100 / 54. 92.100
    libavformat 54. 63.102 / 54. 63.102
    libavdevice 54. 3.103 / 54. 3.103
    libavfilter 3. 41.100 / 3. 41.100
    libswscale 2. 2.100 / 2. 2.100
    libswresample 0. 17.102 / 0. 17.102
    Input #0, avi, from 'N:\VIDEOS\Lewis\2013\October 20\Sir Lewisanshalot.avi':
    Duration: 00:02:26.77, start: 0.000000, bitrate: 5244 kb/s
    Stream #0:0: Video: h264 (Main) (H264 / 0x34363248), yuv420p, 1920x1080 [SAR 1:1 DAR 16:9], 30 fps, 30 tbr, 30 tbn, 60 tbc
    Stream #0:1: Audio: mp3 (U[0][0][0] / 0x0055), 48000 Hz, stereo, s16p, 256 kb/s
    At least one output file must be specified

    <MEZZMO>: Child process ended with code: 109, ExitCode=1


    ---> DB Level Info: 51, 77
    ---> Frame rate: 30.00
    ---> Aspect ratio: 16:9 PAR=1:1
    Device profiles:- [TV] UE32D5500 Samsung D and Samsung Captivate
    Connection :- Devolo dLAN 500 Mbps AV mini Starter Kit powerline connection Computer to router Ethernet

    I must emphasize no problems with previous version with videos with same set up.
    I'm pretty new to forums and hope that I have posted correctly?

  2. #2
    Join Date
    Nov 2007
    Location
    Melbourne, Australia
    Posts
    11,616

    Default

    Thanks for the information. We'll get you up and running. First thing we'll need is a set of logs as that will show us what's happening. Please turn on logging (see http://forum.conceiva.com/showthread...nostic-logging) and restart your Mezzmo server. Reproduce the problem you mention and then stop your Mezzmo server and exit Mezzmo. Zip up all the logs and email them to us at support [at] conceiva [dot] com.

    Mezzmo Android: Install it on your tablet, smartphone, Android TV or Amazon Fire to browse and stream files from your Mezzmo library to all your devices. Full details at http://www.conceiva.com/products/mez...mo_android.asp
    Mezzmo for Kodi Add-on: Install it into Kodi to stream files from your Mezzmo library directly in Kodi. Full details at http://www.mezzmo.com/wiki/doku.php?...odi_user_guide
    Mezzmo for Roku App: Install it onto your Roku to stream files from your Mezzmo library. Full details at http://www.mezzmo.com/wiki/doku.php?...oku_user_guide
    Wiki: User Guides & Reference Manual at http://www.mezzmo.com/wiki
    Facebook: http://www.facebook.com/Mezzmo.DLNA.Server
    Twitter: https://twitter.com/conceiva_mezzmo
    Web: http://www.mezzmo.com

Similar Threads

  1. Replies: 0
    Last Post: 11-20-2013, 10:50 AM
  2. Prior Version of Mezzmo
    By Johnosnr in forum Mezzmo Questions and Support
    Replies: 6
    Last Post: 02-09-2013, 09:49 AM
  3. samsung loading (buffering) with update 2.6.5
    By troyb1 in forum Mezzmo Questions and Support
    Replies: 4
    Last Post: 07-20-2012, 06:39 PM
  4. Poor playback of wtv files on Sony Blu-Ray Player (BDP-S580) - No buffering?
    By FrankTheTank in forum Mezzmo Questions and Support
    Replies: 8
    Last Post: 12-02-2011, 02:13 PM
  5. Samsung C7000 MPEG4 1080P Buffering
    By fletchj in forum Mezzmo Questions and Support
    Replies: 1
    Last Post: 01-05-2011, 09:49 AM

Tags for this Thread

Bookmarks

Posting Permissions

  • You may not post new threads
  • You may not post replies
  • You may not post attachments
  • You may not edit your posts
  •