Results 1 to 2 of 2

Thread: Mezzmo - PS3 MP4 problem

  1. #1

    Default Mezzmo - PS3 MP4 problem

    Morning all,

    I'm having trouble with streaming some mp4 - files to my PS3.
    Here is the FFmpeg information:

    ffmpeg version N-50460-g393dcbf Copyright (c) 2000-2013 the FFmpeg developers
    built on Jun 27 2013 17:20:20 with gcc 4.6.2 (GCC)
    configuration: --enable-memalign-hack --arch=x86_64 --target-os=mingw32 --cross-prefix=x86_64-w64-mingw32- --enable-static --disable-shared --enable-zlib --disable-postproc --prefix=/home/peter/ffmpeg/build/gpl64 --enable-libmp3lame --enable-libx264 --enable-gpl --extra-libs='-lx264 -lpthread' --enable-runtime-cpudetect --extra-cflags=-I/home/peter/cc64/include --extra-ldflags=-L/home/peter/cc64/lib --pkg-config=pkg-config --disable-w32threads --enable-zlib
    libavutil 52. 17.103 / 52. 17.103
    libavcodec 54. 92.100 / 54. 92.100
    libavformat 54. 63.102 / 54. 63.102
    libavdevice 54. 3.103 / 54. 3.103
    libavfilter 3. 41.100 / 3. 41.100
    libswscale 2. 2.100 / 2. 2.100
    libswresample 0. 17.102 / 0. 17.102
    Input #0, mov,mp4,m4a,3gp,3g2,mj2, from '\\192.168.XXX.XXX\MYMP4FILE.mp4':
    Metadata:
    major_brand : isom
    minor_version : 1
    compatible_brands: isom
    creation_time : 2013-03-24 12:45:54
    Duration: 00:21:34.85, start: 0.000000, bitrate: 1116 kb/s
    Stream #0:0(und): Video: h264 (High) (avc1 / 0x31637661), yuv420p, 720x404, 995 kb/s, 23.98 fps, 23.98 tbr, 24k tbn, 47.95 tbc
    Metadata:
    creation_time : 2013-03-25 11:22:33
    handler_name : GPAC ISO Video Handler
    Stream #0:1(und): Audio: aac (mp4a / 0x6134706D), 48000 Hz, stereo, fltp, 117 kb/s
    Metadata:
    creation_time : 2013-03-24 12:45:55
    handler_name : GPAC ISO Audio Handler
    At least one output file must be specified

    <MEZZMO>: Child process ended with code: 109, ExitCode=1


    ---> DB Level Info: 31, 100
    ---> Frame rate: 23,98
    ---> Aspect ratio:


    In one other thread i saw something about customizing the PS3 - Profile in Mezzmo, but I don't wanna play arroung without a pro telling me how to.
    I just updated to Version 3.4.4.0 yesterday.
    Thanks for your help. If any other Information is needed please tell me.
    Regards itman

  2. #2
    Join Date
    Nov 2007
    Location
    Melbourne, Australia
    Posts
    11,616

    Default

    I assume the MP4 does not play on your PS3. Try pre-transcoding it to another format and see if it plays now. Right-click on the MP4 in Mezzmo and click 'Pre-transcode Files'. On the Pre-transcode Files dialog, select your device and click 'Choose Formats'. On the Pre-transcode Formats dialog, select the bolded format and click the 'Force full transcode of all channels' checkbox. Click OK and then select the 'Pre-transcode files even if they match the device's supported formats' checkbox. Click OK and transcoding will begin. After it completes, try streaming the file now.

    Mezzmo Android: Install it on your tablet, smartphone, Android TV or Amazon Fire to browse and stream files from your Mezzmo library to all your devices. Full details at http://www.conceiva.com/products/mez...mo_android.asp
    Mezzmo for Kodi Add-on: Install it into Kodi to stream files from your Mezzmo library directly in Kodi. Full details at http://www.mezzmo.com/wiki/doku.php?...odi_user_guide
    Mezzmo for Roku App: Install it onto your Roku to stream files from your Mezzmo library. Full details at http://www.mezzmo.com/wiki/doku.php?...oku_user_guide
    Wiki: User Guides & Reference Manual at http://www.mezzmo.com/wiki
    Facebook: http://www.facebook.com/Mezzmo.DLNA.Server
    Twitter: https://twitter.com/conceiva_mezzmo
    Web: http://www.mezzmo.com

Similar Threads

  1. Corrupt file trying to stream specific MP4 to PS3
    By whilke in forum Mezzmo Questions and Support
    Replies: 6
    Last Post: 10-15-2013, 07:13 AM
  2. PS3 Corrupted Data for some mp4 s
    By LowPop in forum Mezzmo Questions and Support
    Replies: 2
    Last Post: 06-14-2013, 09:54 AM
  3. Viera THP58VT20A MP4/MKV problem
    By Maxxx in forum Mezzmo Questions and Support
    Replies: 6
    Last Post: 03-24-2011, 09:11 AM
  4. Mezzmo and PS3 : problem with playing .mov ... please help !
    By vanhaze in forum Mezzmo Questions and Support
    Replies: 5
    Last Post: 03-18-2011, 03:30 AM
  5. Problem streaming .mp4 videos to my PS3
    By Viper in forum Mezzmo Questions and Support
    Replies: 2
    Last Post: 11-08-2010, 01:32 PM

Tags for this Thread

Bookmarks

Posting Permissions

  • You may not post new threads
  • You may not post replies
  • You may not post attachments
  • You may not edit your posts
  •