Results 1 to 2 of 2

Thread: New profile for Windows Phone 8

  1. #1
    Join Date
    Dec 2013
    Posts
    1

    Default New profile for Windows Phone 8

    Hello, I have a Nokia Lumia 520 with Windows Phone 8 (GDR3 update) and the profile witch transcode files does not work for me.

    Mezzmo tries to transcode it to asf, msmpeg4, wmav2, but every DLNA player I tried didn't play the video.

    If I manually convert the video to an MP4 file, it works. Here is the ffmpeg information for the MP4 file:

    ffmpeg version N-50460-g393dcbf Copyright (c) 2000-2013 the FFmpeg developers
    built on Jun 27 2013 17:20:20 with gcc 4.6.2 (GCC)
    configuration: --enable-memalign-hack --arch=x86_64 --target-os=mingw32 --cross-prefix=x86_64-w64-mingw32- --enable-static --disable-shared --enable-zlib --disable-postproc --prefix=/home/peter/ffmpeg/build/gpl64 --enable-libmp3lame --enable-libx264 --enable-gpl --extra-libs='-lx264 -lpthread' --enable-runtime-cpudetect --extra-cflags=-I/home/peter/cc64/include --extra-ldflags=-L/home/peter/cc64/lib --pkg-config=pkg-config --disable-w32threads --enable-zlib
    libavutil 52. 17.103 / 52. 17.103
    libavcodec 54. 92.100 / 54. 92.100
    libavformat 54. 63.102 / 54. 63.102
    libavdevice 54. 3.103 / 54. 3.103
    libavfilter 3. 41.100 / 3. 41.100
    libswscale 2. 2.100 / 2. 2.100
    libswresample 0. 17.102 / 0. 17.102
    Input #0, mov,mp4,m4a,3gp,3g2,mj2, from '--------':
    Metadata:
    major_brand : isom
    minor_version : 512
    compatible_brands: isomiso2avc1mp41
    encoder : Lavf54.63.104
    Duration: 00:03:09.42, start: 0.000000, bitrate: 1924 kb/s
    Stream #0:0(und): Video: h264 (Main) (avc1 / 0x31637661), yuv420p, 716x316 [SAR 1:1 DAR 179:79], 1751 kb/s, 29.97 fps, 29.97 tbr, 30k tbn, 59.94 tbc
    Metadata:
    handler_name : VideoHandler
    Stream #0:1(und): Audio: aac (mp4a / 0x6134706D), 48000 Hz, stereo, fltp, 165 kb/s
    Metadata:
    handler_name : SoundHandler
    At least one output file must be specified

    <MEZZMO>: Child process ended with code: 109, ExitCode=1


    ---> DB Level Info: 30, 77
    ---> Frame rate: 29,97
    ---> Aspect ratio: 179:79 PAR=1:1

    Can you update the Windows Phone 8 profile so that the files will be transcoded to the above format? Thanks.

  2. #2
    Join Date
    Nov 2007
    Location
    Melbourne, Australia
    Posts
    11,616

    Default

    OK - please email us at support [at] conceiva [dot] com and we'll provide an updated device profile.

    Mezzmo Android: Install it on your tablet, smartphone, Android TV or Amazon Fire to browse and stream files from your Mezzmo library to all your devices. Full details at http://www.conceiva.com/products/mez...mo_android.asp
    Mezzmo for Kodi Add-on: Install it into Kodi to stream files from your Mezzmo library directly in Kodi. Full details at http://www.mezzmo.com/wiki/doku.php?...odi_user_guide
    Mezzmo for Roku App: Install it onto your Roku to stream files from your Mezzmo library. Full details at http://www.mezzmo.com/wiki/doku.php?...oku_user_guide
    Wiki: User Guides & Reference Manual at http://www.mezzmo.com/wiki
    Facebook: http://www.facebook.com/Mezzmo.DLNA.Server
    Twitter: https://twitter.com/conceiva_mezzmo
    Web: http://www.mezzmo.com

Similar Threads

  1. Windows 8 Phone setup
    By kilfinan in forum Mezzmo Questions and Support
    Replies: 2
    Last Post: 10-22-2013, 06:51 AM
  2. Windows Phone 8 Setup
    By Drobilliard in forum Mezzmo Questions and Support
    Replies: 6
    Last Post: 08-23-2013, 11:38 PM
  3. Mezzmo Profile for Windows Phone 8 ( Nokia Lumia 920)
    By Leo in forum Mezzmo Questions and Support
    Replies: 6
    Last Post: 08-15-2013, 08:34 AM
  4. Windows Phone 8 Transcoding
    By khunrei in forum Mezzmo Questions and Support
    Replies: 4
    Last Post: 08-14-2013, 10:02 PM
  5. Mezzmo and Windows Phone 7.5 (Nokia Lumia 710)
    By smitbret in forum Mezzmo Questions and Support
    Replies: 12
    Last Post: 09-06-2012, 09:14 AM

Tags for this Thread

Bookmarks

Posting Permissions

  • You may not post new threads
  • You may not post replies
  • You may not post attachments
  • You may not edit your posts
  •