Results 1 to 4 of 4

Thread: Codec not supported on Samsung LE40C650

  1. #1
    Join Date
    Jul 2010
    Posts
    4

    Question Codec not supported on Samsung LE40C650

    Hello,

    One of my movies doesn't play using Mezzmo on my Samsung tv; giving an error message stating that the codec is not supported. Could someone maybe take a look at it? Here is the FFMpeg info:

    Code:
    FFmpeg version SVN-r24894, Copyright (c) 2000-2010 the FFmpeg developers
      built on Aug 24 2010 15:03:07 with gcc 4.4.0
      configuration: --enable-static --disable-shared --enable-memalign-hack --enable-libmp3lame --extra-cflags=-I/c/msys/local/include --extra-ldflags=-L/c/msys/local/lib --enable-zlib --enable-w32threads --extra-cflags=-fno-common --enable-gpl --enable-libx264 --disable-ffplay --disable-ffprobe --disable-ffserver --enable-runtime-cpudetect --extra-cflags=-U__STRICT_ANSI__
      libavutil     50.24. 0 / 50.24. 0
      libavcore      0. 6. 0 /  0. 6. 0
      libavcodec    52.86. 1 / 52.86. 1
      libavformat   52.78. 3 / 52.78. 3
      libavdevice   52. 2. 1 / 52. 2. 1
      libavfilter    1.37. 0 /  1.37. 0
      libswscale     0.11. 0 /  0.11. 0
    
    Seems stream 0 codec frame rate differs from container frame rate: 24.01 (65535/2730) -> 24.00 (10000000/416667)
    Input #0, avi, from 'D:\DC\Share Samsung\The.Lives.of.Others[2006]720p.XviD.AC3.6Chn.Cody'sBRrip\The.Lives.of.Others[2006]720p.XviD.AC3.6Chn.Cody'sBRrip.avi':
      Metadata:
        ISFT            : AVI-Mux GUI 1.17.8, Aug 30 2008  12:36:58
        JUNK            : 
      Duration: 02:17:35.92, start: 0.000000, bitrate: 1454 kb/s
        Stream #0.0: Video: mpeg4, yuv420p, 1280x536 [PAR 1:1 DAR 160:67], 24 tbr, 24 tbn, 24.01 tbc
        Stream #0.1: Audio: ac3, 48000 Hz, 5.1, s16, 384 kb/s
        Metadata:
          strn            : The.Lives.of.Others[2006]
    At least one output file must be specified
    Thanks!

  2. #2
    Join Date
    Nov 2007
    Location
    Melbourne, Australia
    Posts
    11,616

    Default

    Contact us at support [at] conceiva [dot] com and we can supply a patch that may let you play this file. We are currently testing it with a few users.

    Mezzmo Android: Install it on your tablet, smartphone, Android TV or Amazon Fire to browse and stream files from your Mezzmo library to all your devices. Full details at http://www.conceiva.com/products/mez...mo_android.asp
    Mezzmo for Kodi Add-on: Install it into Kodi to stream files from your Mezzmo library directly in Kodi. Full details at http://www.mezzmo.com/wiki/doku.php?...odi_user_guide
    Mezzmo for Roku App: Install it onto your Roku to stream files from your Mezzmo library. Full details at http://www.mezzmo.com/wiki/doku.php?...oku_user_guide
    Wiki: User Guides & Reference Manual at http://www.mezzmo.com/wiki
    Facebook: http://www.facebook.com/Mezzmo.DLNA.Server
    Twitter: https://twitter.com/conceiva_mezzmo
    Web: http://www.mezzmo.com

  3. #3

    Default

    I had the error "video codec not supported" trying to view video's using the wireless option on my samsung tv or my samsung bluray player, but once I added encoding to the video's having this error using Microsoft Expression Encoder 4 (free version) http://www.microsoft.com/expression/..._Overview.aspx it fixed this issue.

    So, using allshare or DNLA wirless streaming video, what some files are missing is the correct encoding! I was able to do this to .wmv, avi and mov files. Either seperately or making a windows live movie maker wmv file and encoding that final result. Why no one has this info posted anywhere I looked (and I looked high and low) I have no idea, but yeah theres the fix..

  4. #4
    Join Date
    Nov 2007
    Location
    Melbourne, Australia
    Posts
    11,616

    Default

    You should not need to re-encode your files manually (although you can if you wish) since Mezzmo transcodes your files on-the-fly.

    Mezzmo Android: Install it on your tablet, smartphone, Android TV or Amazon Fire to browse and stream files from your Mezzmo library to all your devices. Full details at http://www.conceiva.com/products/mez...mo_android.asp
    Mezzmo for Kodi Add-on: Install it into Kodi to stream files from your Mezzmo library directly in Kodi. Full details at http://www.mezzmo.com/wiki/doku.php?...odi_user_guide
    Mezzmo for Roku App: Install it onto your Roku to stream files from your Mezzmo library. Full details at http://www.mezzmo.com/wiki/doku.php?...oku_user_guide
    Wiki: User Guides & Reference Manual at http://www.mezzmo.com/wiki
    Facebook: http://www.facebook.com/Mezzmo.DLNA.Server
    Twitter: https://twitter.com/conceiva_mezzmo
    Web: http://www.mezzmo.com

Tags for this Thread

Bookmarks

Posting Permissions

  • You may not post new threads
  • You may not post replies
  • You may not post attachments
  • You may not edit your posts
  •