Results 1 to 4 of 4

Thread: Mezzmo Stutters on XBOX but OK on Pana GT50

  1. #1
    Join Date
    Dec 2013
    Posts
    25

    Default Mezzmo Stutters on XBOX but OK on Pana GT50

    Hi All

    I have recently bought Mezzmo and is great but when I playback Pre-transcoded MKV files specifically for me XBOX using mpegts > mpeg2video(29 fps) > ac3.

    But when I play these on my xbox it always stops/stutters but if I play them on my Pana GT50 directly they play fine. reason i want to play thru xbox is so that the signal can go thru me AV Amp rather than just play thru the TV speakers.

    Files are on me 8gb N54L Microserver and all 3 devices are linked via CAT6 and a gigabit ethernet switch.

    Thanks in Advance

  2. #2
    Join Date
    Nov 2007
    Location
    Melbourne, Australia
    Posts
    11,616

    Default

    Right-click on the video in Mezzmo and click 'Get FFmpeg Information'. Please post that information here or email it to us at support [at] conceiva [dot] com.

    Mezzmo Android: Install it on your tablet, smartphone, Android TV or Amazon Fire to browse and stream files from your Mezzmo library to all your devices. Full details at http://www.conceiva.com/products/mez...mo_android.asp
    Mezzmo for Kodi Add-on: Install it into Kodi to stream files from your Mezzmo library directly in Kodi. Full details at http://www.mezzmo.com/wiki/doku.php?...odi_user_guide
    Mezzmo for Roku App: Install it onto your Roku to stream files from your Mezzmo library. Full details at http://www.mezzmo.com/wiki/doku.php?...oku_user_guide
    Wiki: User Guides & Reference Manual at http://www.mezzmo.com/wiki
    Facebook: http://www.facebook.com/Mezzmo.DLNA.Server
    Twitter: https://twitter.com/conceiva_mezzmo
    Web: http://www.mezzmo.com

  3. #3
    Join Date
    Dec 2013
    Posts
    25

    Default

    Here you go

    ffmpeg version N-40693-gc457a29 Copyright (c) 2000-2012 the FFmpeg developers
    built on May 15 2012 12:57:14 with gcc 4.6.2
    configuration: --enable-memalign-hack --arch=x86 --target-os=mingw32 --cross-prefix=i686-w64-mingw32- --enable-static --disable-shared --enable-zlib --disable-postproc --prefix=/home/peter/ffmpeg/build/gpl --enable-libmp3lame --enable-libx264 --enable-gpl --extra-libs='-lx264 -lpthread' --enable-runtime-cpudetect --extra-cflags=-I/home/peter/cc/include --extra-ldflags=-L/home/peter/cc/lib --pkg-config=pkg-config --disable-w32threads
    libavutil 51. 51.100 / 51. 51.100
    libavcodec 54. 21.101 / 54. 21.101
    libavformat 54. 5.100 / 54. 5.100
    libavdevice 53. 4.100 / 53. 4.100
    libavfilter 2. 73.100 / 2. 73.100
    libswscale 2. 1.100 / 2. 1.100
    libswresample 0. 11.100 / 0. 11.100
    Input #0, matroska,webm, from 'E:\Media\Video\TV\Breaking Bad\Breaking.Bad.S03\Breaking.Bad.S03E01.720p.HDTV .X264-DIMENSION.mkv':
    Metadata:
    creation_time : 2010-03-21 12:54:15
    Duration: 00:47:04.23, start: 0.000000, bitrate: 3323 kb/s
    Stream #0:0(eng): Video: h264 (High), yuv420p, 1280x720, SAR 1:1 DAR 16:9, 23.98 fps, 23.98 tbr, 1k tbn, 47.95 tbc (default)
    Stream #0:1: Audio: ac3, 48000 Hz, stereo, s16, 192 kb/s (default)
    At least one output file must be specified

    <MEZZMO>: Child process ended with code: 109, ExitCode=1


    ---> DB Level Info: 41, 100
    ---> Frame rate: 23.98
    ---> Aspect ratio: 16:9

  4. #4
    Join Date
    Nov 2007
    Location
    Melbourne, Australia
    Posts
    11,616

    Default

    It could be that the video bitrate is a little too high for your Xbox 360's firmware decode and play the MPEG-TS file. Try this:

    1. Go to the Media Devices dialog and edit your device.
    2. On the Device Settings dialog, go to the Performance tab and move the Video bitrate slider halfway. Click OK to save your changes.
    3. Pre-transcode the MKV again to MPEG-TS. This time, on the Pre-transcode Formats dialog, select 'mpegts' and select the 'Force full transcode' checkbox.
    4. Mezzmo will transcode the MKV file at a reduced video bitrate. Once complete, try streaming the video now.

    There are more notes about stuttering here - http://forum.conceiva.com/showthread...reaming-videos

    Mezzmo Android: Install it on your tablet, smartphone, Android TV or Amazon Fire to browse and stream files from your Mezzmo library to all your devices. Full details at http://www.conceiva.com/products/mez...mo_android.asp
    Mezzmo for Kodi Add-on: Install it into Kodi to stream files from your Mezzmo library directly in Kodi. Full details at http://www.mezzmo.com/wiki/doku.php?...odi_user_guide
    Mezzmo for Roku App: Install it onto your Roku to stream files from your Mezzmo library. Full details at http://www.mezzmo.com/wiki/doku.php?...oku_user_guide
    Wiki: User Guides & Reference Manual at http://www.mezzmo.com/wiki
    Facebook: http://www.facebook.com/Mezzmo.DLNA.Server
    Twitter: https://twitter.com/conceiva_mezzmo
    Web: http://www.mezzmo.com

Similar Threads

  1. Panasonic GT50 will not play subtitles
    By ghost00xx in forum Mezzmo Questions and Support
    Replies: 1
    Last Post: 07-30-2013, 09:20 AM
  2. Replies: 8
    Last Post: 05-22-2013, 05:12 AM
  3. XBOX 360 will not see Mezzmo
    By Taubin in forum Mezzmo Questions and Support
    Replies: 2
    Last Post: 06-25-2012, 09:21 AM
  4. Mezzmo and Xbox 360
    By JohnCoch in forum Mezzmo Questions and Support
    Replies: 5
    Last Post: 09-30-2011, 02:15 PM
  5. Mezzmo stutters playing Samsung .MP4 files.
    By stevey396 in forum Mezzmo Questions and Support
    Replies: 3
    Last Post: 07-19-2011, 09:12 AM

Tags for this Thread

Bookmarks

Posting Permissions

  • You may not post new threads
  • You may not post replies
  • You may not post attachments
  • You may not edit your posts
  •