Results 1 to 2 of 2

Thread: Streaming MKV to Samsung HT-C5500

  1. #1
    Join Date
    Mar 2013
    Posts
    2

    Default Streaming MKV to Samsung HT-C5500

    Dear all,

    I'm experiencing some problems streaming some MKV files to my Samsung HT-C5500 Home Cinema.

    The profile for the media device is "Samsung C"

    When I try to play them it shows a black screen for about 10 seconds and then it displays the message: "File not supported".

    If I pre-transcode the movie, it will show, but this solution is not convenient for me as I don't know wich files will not play to pre-transcode them beforehand.

    Below is the FFMpeg information for two files that are not streaming, the first one I've already transcoded and it works, the second one is transcoding now...

    What can I do for these files to be streamed automatically as the remaining ones in my library?

    Best regards

    Eduardo Poças

    ---------------------FILE #1-------------------------------
    ffmpeg version N-50460-g393dcbf Copyright (c) 2000-2013 the FFmpeg developers
    built on Jun 27 2013 17:20:20 with gcc 4.6.2 (GCC)
    configuration: --enable-memalign-hack --arch=x86_64 --target-os=mingw32 --cross-prefix=x86_64-w64-mingw32- --enable-static --disable-shared --enable-zlib --disable-postproc --prefix=/home/peter/ffmpeg/build/gpl64 --enable-libmp3lame --enable-libx264 --enable-gpl --extra-libs='-lx264 -lpthread' --enable-runtime-cpudetect --extra-cflags=-I/home/peter/cc64/include --extra-ldflags=-L/home/peter/cc64/lib --pkg-config=pkg-config --disable-w32threads --enable-zlib
    libavutil 52. 17.103 / 52. 17.103
    libavcodec 54. 92.100 / 54. 92.100
    libavformat 54. 63.102 / 54. 63.102
    libavdevice 54. 3.103 / 54. 3.103
    libavfilter 3. 41.100 / 3. 41.100
    libswscale 2. 2.100 / 2. 2.100
    libswresample 0. 17.102 / 0. 17.102
    Input #0, matroska,webm, from 'D:\Media\Series\Arrow\Season 01\Arrow.S01E13.Betrayal.1080p.WEB-DL.DD5.1.H.264-TB.mkv':
    Metadata:
    title : Arrow S01E13
    creation_time : 2013-02-07 16:36:03
    Duration: 00:42:21.95, start: 0.000000, bitrate: 5353 kb/s
    Stream #0:0(eng): Video: h264 (High), yuv420p, 1920x1080 [SAR 1:1 DAR 16:9], 23.98 fps, 23.98 tbr, 1k tbn, 2k tbc (default)
    Stream #0:1(eng): Audio: ac3, 48000 Hz, 5.1(side), fltp, 384 kb/s (default)
    At least one output file must be specified

    <MEZZMO>: Child process ended with code: 109, ExitCode=1


    ---> DB Level Info: 40, 100
    ---> Frame rate: 23,98
    ---> Aspect ratio: 16:9 PAR=1:1


    ---------------------FILE #2-------------------------------
    ffmpeg version N-50460-g393dcbf Copyright (c) 2000-2013 the FFmpeg developers
    built on Jun 27 2013 17:20:20 with gcc 4.6.2 (GCC)
    configuration: --enable-memalign-hack --arch=x86_64 --target-os=mingw32 --cross-prefix=x86_64-w64-mingw32- --enable-static --disable-shared --enable-zlib --disable-postproc --prefix=/home/peter/ffmpeg/build/gpl64 --enable-libmp3lame --enable-libx264 --enable-gpl --extra-libs='-lx264 -lpthread' --enable-runtime-cpudetect --extra-cflags=-I/home/peter/cc64/include --extra-ldflags=-L/home/peter/cc64/lib --pkg-config=pkg-config --disable-w32threads --enable-zlib
    libavutil 52. 17.103 / 52. 17.103
    libavcodec 54. 92.100 / 54. 92.100
    libavformat 54. 63.102 / 54. 63.102
    libavdevice 54. 3.103 / 54. 3.103
    libavfilter 3. 41.100 / 3. 41.100
    libswscale 2. 2.100 / 2. 2.100
    libswresample 0. 17.102 / 0. 17.102
    Input #0, matroska,webm, from 'D:\Media\Downloads\Escape.Plan.2013.1080p.HDTV.x2 64-KingStoner\Escape.Plan.2013.1080p.HDTV.x264-KingStoner.mkv':
    Metadata:
    creation_time : 1970-01-01 00:00:02
    Duration: 01:50:40.82, start: 0.000000, bitrate: 4676 kb/s
    Stream #0:0(eng): Audio: aac, 48000 Hz, stereo, fltp (default)
    Stream #0:1(eng): Video: h264 (High), yuv420p, 1920x1080 [SAR 1:1 DAR 16:9], 25 fps, 25 tbr, 1k tbn, 50 tbc (default)
    At least one output file must be specified

    <MEZZMO>: Child process ended with code: 109, ExitCode=1


    ---> DB Level Info: 40, 100
    ---> Frame rate: 25,00
    ---> Aspect ratio: 16:9 PAR=1:1

  2. #2
    Join Date
    Nov 2007
    Location
    Melbourne, Australia
    Posts
    11,616

    Default

    Email us at support [at] conceiva [dot] com and we'll provide a tweaked device profile that should get you up and running.

    Mezzmo Android: Install it on your tablet, smartphone, Android TV or Amazon Fire to browse and stream files from your Mezzmo library to all your devices. Full details at http://www.conceiva.com/products/mez...mo_android.asp
    Mezzmo for Kodi Add-on: Install it into Kodi to stream files from your Mezzmo library directly in Kodi. Full details at http://www.mezzmo.com/wiki/doku.php?...odi_user_guide
    Mezzmo for Roku App: Install it onto your Roku to stream files from your Mezzmo library. Full details at http://www.mezzmo.com/wiki/doku.php?...oku_user_guide
    Wiki: User Guides & Reference Manual at http://www.mezzmo.com/wiki
    Facebook: http://www.facebook.com/Mezzmo.DLNA.Server
    Twitter: https://twitter.com/conceiva_mezzmo
    Web: http://www.mezzmo.com

Similar Threads

  1. Free Trial - No Joy :( - Samsung BD-C5500
    By commpro in forum Mezzmo Questions and Support
    Replies: 18
    Last Post: 09-04-2012, 10:46 AM
  2. Mezzmo and samsung bd-c5500
    By bradc12 in forum Mezzmo Questions and Support
    Replies: 3
    Last Post: 07-13-2012, 05:47 PM
  3. Streaming 5.1 Surround Sound with Samsung BDP (BD-C5500)
    By k2skier70 in forum Mezzmo Questions and Support
    Replies: 1
    Last Post: 04-30-2012, 03:27 PM
  4. Unsupported file format with Samsung HT-C5500
    By Logan80 in forum Mezzmo Questions and Support
    Replies: 1
    Last Post: 08-18-2011, 05:20 PM
  5. Best Profile for Samsung BD-C5500?
    By rjcollins in forum Mezzmo Questions and Support
    Replies: 1
    Last Post: 07-08-2010, 09:54 AM

Tags for this Thread

Bookmarks

Posting Permissions

  • You may not post new threads
  • You may not post replies
  • You may not post attachments
  • You may not edit your posts
  •