Results 1 to 4 of 4

Thread: Not working Oppo BDP profile

  1. #1
    Join Date
    Sep 2010
    Posts
    2

    Default Not working Oppo BDP profile

    Hello

    Got problem with Oppo BDP profile.

    MKVs are playing excellent but e.g. avi files are not seen in player's browser.

    If I choose other profile (right now I don't remember which one) , avi movies appear in browser (as MPEG)
    but choosing them goes to the browser back.

    Sometimes other profiles make all media files as MPEG but nothing works then.

    IS any other way to edit/customize profile files or manual only? Some wizard or utility would be great.

  2. #2
    Join Date
    Nov 2007
    Location
    Melbourne, Australia
    Posts
    11,616

    Default

    Hello,

    AVI files need to be transcoded to MPEG - can you please send a message to support (at) conceiva (dot) com and I'll send you a patched version of the server that may fix your issue.

    The only current way to edit device profiles is by hand and I'll be happy to help you with any aspect of that as well.

    Mezzmo Android: Install it on your tablet, smartphone, Android TV or Amazon Fire to browse and stream files from your Mezzmo library to all your devices. Full details at http://www.conceiva.com/products/mez...mo_android.asp
    Mezzmo for Kodi Add-on: Install it into Kodi to stream files from your Mezzmo library directly in Kodi. Full details at http://www.mezzmo.com/wiki/doku.php?...odi_user_guide
    Mezzmo for Roku App: Install it onto your Roku to stream files from your Mezzmo library. Full details at http://www.mezzmo.com/wiki/doku.php?...oku_user_guide
    Wiki: User Guides & Reference Manual at http://www.mezzmo.com/wiki
    Facebook: http://www.facebook.com/Mezzmo.DLNA.Server
    Twitter: https://twitter.com/conceiva_mezzmo
    Web: http://www.mezzmo.com

  3. #3
    Join Date
    Sep 2010
    Posts
    2

    Default

    Quote Originally Posted by Dennis View Post
    Hello,

    AVI files need to be transcoded to MPEG - can you please send a message to support (at) conceiva (dot) com and I'll send you a patched version of the server that may fix your issue.

    The only current way to edit device profiles is by hand and I'll be happy to help you with any aspect of that as well.
    I hope you don't mind if I place the message here.

    Transcoding log says :

    1 - Sep 09 23:38:27.439 - TRANS> Input file: D:\MOVIES\+Rambo.4.2008.PL.DD5.1.DVDRip\Rambo4-1.avi

    2 - Sep 09 23:38:27.439 - > Transcoder: Executing: C:\Program Files (x86)\Conceiva\Mezzmo\ffmpeg.exe -i "D:\MOVIES\_RAMBO~1.DVD\Rambo4-1.avi" -y -vcodec copy -vf "scale=704:288" -acodec copy -sn -f matroska -threads 4 -coder 1 -flags +loop -cmp +chroma -me_method hex -subq 6 -me_range 16 -g 250 -keyint_min 25 -sc_threshold 40 -i_qfactor 0.71 -b_strategy 1 -qcomp 0.6 -qmin 10 -qmax 51 -qdiff 4 -bf 3 -refs 2 -directpred 1 -trellis 1 -flags2 +bpyramid+mixed_refs+wpred+dct8x8+fastpskip -wpredp 2 "C:\Users\eMCe\AppData\Local\Conceiva\Mezzmo\Trans codingFiles\91762B4E-D2AF-4d0c-87A9-3EDDDA8D2CB2\Video\3-matroska-libx264-ac3.mzt"

    3 - Sep 09 23:38:27.439 - > Ffmpeg --------------------------------------------------------------------

    4 - Sep 09 23:38:27.592 - FFmpeg version SVN-r24894, Copyright (c) 2000-2010 the FFmpeg developers

    built on Aug 24 2010 15:03:07 with gcc 4.4.0

    configuration: --enable-static --disable-shared --enable-memalign-hack --enable-libmp3lame --extra-cflags=-I/c/msys/local/include --extra-ldflags=-L/c/msys/local/lib --enable-zlib --enable-w32threads --extra-cflags=-fno-common --enable-gpl --enable-libx264 --disable-ffplay --disable-ffprobe --disable-ffserver --enable-runtime-cpudetect --extra-cflags=-U__STRICT_ANSI__

    libavutil 50.24. 0 / 50.24. 0

    libavcore 0. 6. 0 / 0. 6. 0

    libavcodec 52.86. 1 / 52.86. 1

    libavformat 52.78. 3 / 52.78. 3

    libavdevice 52. 2. 1 / 52. 2. 1

    libavfilter 1.37. 0 / 1.37. 0

    libswscale 0.11. 0 / 0.11. 0

    [mpeg4 @ 016e16a0] Invalid and inefficient vfw-avi packed B frames detected

    Input #0, avi, from 'D:\MOVIES\_RAMBO~1.DVD\Rambo4-1.avi':

    Metadata:

    ISFT : VirtualDubMod 1.5.10.2 (build 2540/release)

    Duration: 00:51:08.20, start: 0.000000, bitrate: 1912 kb/s

    Stream #0.0: Video: mpeg4, yuv420p, 704x288 [PAR 1:1 DAR 22:9], 25 tbr, 25 tbn, 25 tbc

    Stream #0.1: Audio: ac3, 48000 Hz, 5.1, s16, 448 kb/s

    Output #0, matroska, to 'C:\Users\eMCe\AppData\Local\Conceiva\Mezzmo\Trans codingFiles\91762B4E-D2AF-4d0c-87A9-3EDDDA8D2CB2\Video\3-matroska-libx264-ac3.mzt':

    Metadata:

    encoder : Lavf52.78.3

    Stream #0.0: Video: mpeg4, yuv420p, 704x288 [PAR 1:1 DAR 22:9], q=2-31, 1k tbn, 25 tbc

    Stream #0.1: Audio: ac3, 48000 Hz, 5.1, 448 kb/s

    Stream mapping:

    Stream #0.0 -> #0.0

    Stream #0.1 -> #0.1

    Press [q] to stop encoding

    [matroska @ 002cc850] Can't write packet with unknown timestamp

    av_interleaved_write_frame(): Invalid data found when processing input

    6 - Sep 09 23:38:27.593 -

    <MEZZMO>: Child process ended

    7 - Sep 09 23:38:37.969 - TRANS> Input file: D:\MOVIES\+Rambo.4.2008.PL.DD5.1.DVDRip\Rambo4-2.avi

    8 - Sep 09 23:38:37.969 - > Transcoder: Executing: C:\Program Files (x86)\Conceiva\Mezzmo\ffmpeg.exe -i "D:\MOVIES\_RAMBO~1.DVD\Rambo4-2.avi" -y -vcodec copy -vf "scale=704:288" -acodec copy -sn -f matroska -threads 4 -coder 1 -flags +loop -cmp +chroma -me_method hex -subq 6 -me_range 16 -g 250 -keyint_min 25 -sc_threshold 40 -i_qfactor 0.71 -b_strategy 1 -qcomp 0.6 -qmin 10 -qmax 51 -qdiff 4 -bf 3 -refs 2 -directpred 1 -trellis 1 -flags2 +bpyramid+mixed_refs+wpred+dct8x8+fastpskip -wpredp 2 "C:\Users\eMCe\AppData\Local\Conceiva\Mezzmo\Trans codingFiles\91762B4E-D2AF-4d0c-87A9-3EDDDA8D2CB2\Video\4-matroska-libx264-ac3.mzt"

    9 - Sep 09 23:38:37.969 - > Ffmpeg --------------------------------------------------------------------

    10 - Sep 09 23:38:38.092 - FFmpeg version SVN-r24894, Copyright (c) 2000-2010 the FFmpeg developers

    built on Aug 24 2010 15:03:07 with gcc 4.4.0

    configuration: --enable-static --disable-shared --enable-memalign-hack --enable-libmp3lame --extra-cflags=-I/c/msys/local/include --extra-ldflags=-L/c/msys/local/lib --enable-zlib --enable-w32threads --extra-cflags=-fno-common --enable-gpl --enable-libx264 --disable-ffplay --disable-ffprobe --disable-ffserver --enable-runtime-cpudetect --extra-cflags=-U__STRICT_ANSI__

    libavutil 50.24. 0 / 50.24. 0

    libavcore 0. 6. 0 / 0. 6. 0

    libavcodec 52.86. 1 / 52.86. 1

    libavformat 52.78. 3 / 52.78. 3

    libavdevice 52. 2. 1 / 52. 2. 1

    libavfilter 1.37. 0 / 1.37. 0

    libswscale 0.11. 0 / 0.11. 0

    [mpeg4 @ 013316a0] Invalid and inefficient vfw-avi packed B frames detected

    Input #0, avi, from 'D:\MOVIES\_RAMBO~1.DVD\Rambo4-2.avi':

    Metadata:

    ISFT : VirtualDubMod 1.5.10.2 (build 2540/release)

    Duration: 00:36:02.84, start: 0.000000, bitrate: 2716 kb/s

    Stream #0.0: Video: mpeg4, yuv420p, 704x288 [PAR 1:1 DAR 22:9], 25 tbr, 25 tbn, 25 tbc

    Stream #0.1: Audio: ac3, 48000 Hz, 5.1, s16, 448 kb/s

    Output #0, matroska, to 'C:\Users\eMCe\AppData\Local\Conceiva\Mezzmo\Trans codingFiles\91762B4E-D2AF-4d0c-87A9-3EDDDA8D2CB2\Video\4-matroska-libx264-ac3.mzt':

    Metadata:

    encoder : Lavf52.78.3

    Stream #0.0: Video: mpeg4, yuv420p, 704x288 [PAR 1:1 DAR 22:9], q=2-31, 1k tbn, 25 tbc

    Stream #0.1: Audio: ac3, 48000 Hz, 5.1, 448 kb/s

    Stream mapping:

    Stream #0.0 -> #0.0

    Stream #0.1 -> #0.1

    Press [q] to stop encoding

    [matroska @ 0136a2c0] Can't write packet with unknown timestamp

    av_interleaved_write_frame(): Invalid data found when processing input

    12 - Sep 09 23:38:38.092 -

    <MEZZMO>: Child process ended

    13 - Sep 09 23:39:05.864 - TRANS> Input file: D:\MOVIES\kopciuszek\bdsm-cin\bdsm-cin.avi

    14 - Sep 09 23:39:05.865 - > Transcoder: Executing: C:\Program Files (x86)\Conceiva\Mezzmo\ffmpeg.exe -i "D:\MOVIES\KOPCIU~1\bdsm-cin\bdsm-cin.avi" -y -vcodec copy -vf "scale=640:480" -acodec ac3 -ac 2 -ab 448000 -ar 48000 -sn -f matroska -threads 4 -coder 1 -flags +loop -cmp +chroma -me_method hex -subq 6 -me_range 16 -g 250 -keyint_min 25 -sc_threshold 40 -i_qfactor 0.71 -b_strategy 1 -qcomp 0.6 -qmin 10 -qmax 51 -qdiff 4 -bf 3 -refs 2 -directpred 1 -trellis 1 -flags2 +bpyramid+mixed_refs+wpred+dct8x8+fastpskip -wpredp 2 "C:\Users\eMCe\AppData\Local\Conceiva\Mezzmo\Trans codingFiles\91762B4E-D2AF-4d0c-87A9-3EDDDA8D2CB2\Video\89-matroska-libx264-ac3.mzt"

    15 - Sep 09 23:39:05.865 - > Ffmpeg --------------------------------------------------------------------

    16 - Sep 09 23:39:06.768 - FFmpeg version SVN-r24894, Copyright (c) 2000-2010 the FFmpeg developers

    built on Aug 24 2010 15:03:07 with gcc 4.4.0

    configuration: --enable-static --disable-shared --enable-memalign-hack --enable-libmp3lame --extra-cflags=-I/c/msys/local/include --extra-ldflags=-L/c/msys/local/lib --enable-zlib --enable-w32threads --extra-cflags=-fno-common --enable-gpl --enable-libx264 --disable-ffplay --disable-ffprobe --disable-ffserver --enable-runtime-cpudetect --extra-cflags=-U__STRICT_ANSI__

    libavutil 50.24. 0 / 50.24. 0

    libavcore 0. 6. 0 / 0. 6. 0

    libavcodec 52.86. 1 / 52.86. 1

    libavformat 52.78. 3 / 52.78. 3

    libavdevice 52. 2. 1 / 52. 2. 1

    libavfilter 1.37. 0 / 1.37. 0

    libswscale 0.11. 0 / 0.11. 0

    Input #0, avi, from 'D:\MOVIES\KOPCIU~1\bdsm-cin\bdsm-cin.avi':

    Metadata:

    ISFT : Nandub v1.0rc2

    Duration: 01:11:30.08, start: 0.000000, bitrate: 1358 kb/s

    Stream #0.0: Video: mpeg4, yuv420p, 640x480 [PAR 1:1 DAR 4:3], 25 tbr, 25 tbn, 25 tbc

    Stream #0.1: Audio: mp3, 48000 Hz, 1 channels, s16, 127 kb/s

    [ac3 @ 0132e8d0] No channel layout specified. The encoder will guess the layout, but it might be incorrect.

    Output #0, matroska, to 'C:\Users\eMCe\AppData\Local\Conceiva\Mezzmo\Trans codingFiles\91762B4E-D2AF-4d0c-87A9-3EDDDA8D2CB2\Video\89-matroska-libx264-ac3.mzt':

    Metadata:

    encoder : Lavf52.78.3

    Stream #0.0: Video: mpeg4, yuv420p, 640x480 [PAR 1:1 DAR 4:3], q=2-31, 1k tbn, 25 tbc

    Stream #0.1: Audio: ac3, 48000 Hz, stereo, s16, 448 kb/s

    Stream mapping:

    Stream #0.0 -> #0.0

    Stream #0.1 -> #0.1

    Press [q] to stop encoding

    frame= 627 fps= 0 q=-1.0 size= 4150kB time=25.08 bitrate=1355.5kbits/s
    frame= 1301 fps=1291 q=-1.0 size= 9922kB time=52.04 bitrate=1561.8kbits/s
    frame= 1960 fps=1300 q=-1.0 size= 15781kB time=78.40 bitrate=1648.9kbits/s
    frame= 2636 fps=1313 q=-1.0 size= 21376kB time=105.44 bitrate=1660.8kbits/s
    frame= 3264 fps=1301 q=-1.0 size= 29849kB time=130.56 bitrate=1872.9kbits/s
    frame= 3899 fps=1296 q=-1.0 size= 35546kB time=155.96 bitrate=1867.1kbits/s
    frame= 4575 fps=1304 q=-1.0 size= 39772kB time=183.00 bitrate=1780.4kbits/s
    frame= 5258 fps=1312 q=-1.0 size= 44066kB time=210.32 bitrate=1716.4kbits/s
    frame= 5942 fps=1318 q=-1.0 size= 48377kB time=237.68 bitrate=1667.4kbits/s
    frame= 6623 fps=1322 q=-1.0 size= 53151kB time=264.92 bitrate=1643.6kbits/s
    frame= 7303 fps=1326 q=-1.0 size= 58251kB time=292.12 bitrate=1633.6kbits/s
    frame= 7989 fps=1330 q=-1.0 size= 63547kB time=319.56 bitrate=1629.0kbits/s
    frame= 8670 fps=1332 q=-1.0 size= 68557kB time=346.80 bitrate=1619.4kbits/s
    frame= 9352 fps=1334 q=-1.0 size= 73539kB time=374.08 bitrate=1610.4kbits/s
    frame=10017 fps=1334 q=-1.0 size= 79566kB time=400.68 bitrate=1626.7kbits/s
    frame=10692 fps=1335 q=-1.0 size= 84627kB time=427.68 bitrate=1621.0kbits/s
    frame=11366 fps=1336 q=-1.0 size= 89944kB time=454.64 bitrate=1620.7kbits/s
    frame=12026 fps=1335 q=-1.0 size= 94999kB time=481.04 bitrate=1617.8kbits/s
    frame=12669 fps=1332 q=-1.0 size= 101390kB time=506.76 bitrate=1639.0kbits/s
    frame=13319 fps=1331 q=-1.0 size= 107557kB time=532.76 bitrate=1653.9kbits/s
    frame=13988 fps=1331 q=-1.0 size= 112993kB time=559.52 bitrate=1654.3kbits/s
    frame=14663 fps=1332 q=-1.0 size= 118009kB time=586.52 bitrate=1648.2kbits/s
    frame=15351 fps=1334 q=-1.0 size= 122329kB time=614.04 bitrate=1632.0kbits/s
    frame=15926 fps=1326 q=-1.0 size= 126768kB time=637.04 bitrate=1630.2kbits/s
    frame=16601 fps=1327 q=-1.0 size= 131902kB time=664.04 bitrate=1627.2kbits/s
    frame=17272 fps=1328 q=-1.0 size= 136715kB time=690.88 bitrate=1621.1kbits/s
    frame=17951 fps=1329 q=-1.0 size= 141752kB time=718.04 bitrate=1617.2kbits/s
    frame=18630 fps=1330 q=-1.0 size= 146882kB time=745.20 bitrate=1614.7kbits/s
    frame=19308 fps=1331 q=-1.0 size= 152465kB time=772.32 bitrate=1617.2kbits/s
    frame=19949 fps=1329 q=-1.0 size= 158885kB time=797.96 bitrate=1631.1kbits/s
    frame=20613 fps=1329 q=-1.0 size= 165138kB time=824.52 bitrate=1640.7kbits/s
    frame=21303 fps=1331 q=-1.0 size= 170299kB time=852.12 bitrate=1637.2kbits/s
    frame=21993 fps=1332 q=-1.0 size= 175014kB time=879.72 bitrate=1629.7kbits/s
    frame=22639 fps=1331 q=-1.0 size= 182023kB time=905.56 bitrate=1646.6kbits/s
    frame=23306 fps=1331 q=-1.0 size= 187766kB time=932.24 bitrate=1650.0kbits/s


    I've updated Mezzmo to 2.1.9.0 and now Oppo player shows all video files as MKV. Real MKVs working just fine , other ones - player shows "Player does not support playback of this file".

    As seen in the log file above transcoder outputs to matroska format instead of mpeg2 , why ?

    Another interesting behaviour : Current Oppo BDP-83 firmware doesn't allow to stream audio LPCM format but .... with Mezzmo LPCM works very fine , how can it be ? Other DLNA servers don't work as PCM.

  4. #4
    Join Date
    Nov 2007
    Location
    Melbourne, Australia
    Posts
    11,616

    Default

    The current profile will pick MKV if your input file has h264/mpeg4 as the video stream (to optimize transcoding speed). I'd like to get it going with transcoded MKVs, as I believe they're better than MPEG2.

    I'd still ask you to send a message to support, because I need your e-mail address to send out a patch to try

    On the Oppo, do LPCM show up as LPCM? If so, that means the firmware does support them, even if it says it doesn't... Don't know why

    Mezzmo Android: Install it on your tablet, smartphone, Android TV or Amazon Fire to browse and stream files from your Mezzmo library to all your devices. Full details at http://www.conceiva.com/products/mez...mo_android.asp
    Mezzmo for Kodi Add-on: Install it into Kodi to stream files from your Mezzmo library directly in Kodi. Full details at http://www.mezzmo.com/wiki/doku.php?...odi_user_guide
    Mezzmo for Roku App: Install it onto your Roku to stream files from your Mezzmo library. Full details at http://www.mezzmo.com/wiki/doku.php?...oku_user_guide
    Wiki: User Guides & Reference Manual at http://www.mezzmo.com/wiki
    Facebook: http://www.facebook.com/Mezzmo.DLNA.Server
    Twitter: https://twitter.com/conceiva_mezzmo
    Web: http://www.mezzmo.com

Tags for this Thread

Bookmarks

Posting Permissions

  • You may not post new threads
  • You may not post replies
  • You may not post attachments
  • You may not edit your posts
  •