Results 1 to 4 of 4

Thread: Lg 47LA667S Mezmo transcode question

  1. #1
    Join Date
    Feb 2014
    Posts
    2

    Default Lg 47LA667S Mezmo transcode question

    Hi I have LG 47LA667S TV and I'm trying to use mezzmo to stream media from my PC to this TV.
    Problem is when I try to play a MKV file. The tv says it is not supported.
    When I look in mezzmo for this file, transcodding is enabled but it uses "mpegts h264" as format (it's bolded so it's recommended for My LG TV 2013).
    If i set the format to "mpeg mpeg2video" insted it works. But every time I must manually change to this format.

    1. Is there a way to automatically use this format for my TV?
    2. Why is this format preselected for my TV if it does not work?

    Thanks

  2. #2
    Join Date
    Nov 2007
    Location
    Melbourne, Australia
    Posts
    11,616

    Default

    I think MKV files are supported by your TV but your particular MKV file may have codecs or attributes that your TV's firmware cannot decode. Please post the FFmpeg information for the MKV. Right-click on the MKV file in Mezzmo and click 'Get FFmpeg Information'. We can tweak the device profile so that this particular type of MKV is transcoded.

    Mezzmo Android: Install it on your tablet, smartphone, Android TV or Amazon Fire to browse and stream files from your Mezzmo library to all your devices. Full details at http://www.conceiva.com/products/mez...mo_android.asp
    Mezzmo for Kodi Add-on: Install it into Kodi to stream files from your Mezzmo library directly in Kodi. Full details at http://www.mezzmo.com/wiki/doku.php?...odi_user_guide
    Mezzmo for Roku App: Install it onto your Roku to stream files from your Mezzmo library. Full details at http://www.mezzmo.com/wiki/doku.php?...oku_user_guide
    Wiki: User Guides & Reference Manual at http://www.mezzmo.com/wiki
    Facebook: http://www.facebook.com/Mezzmo.DLNA.Server
    Twitter: https://twitter.com/conceiva_mezzmo
    Web: http://www.mezzmo.com

  3. #3
    Join Date
    Feb 2014
    Posts
    2

    Default

    Hi
    Thanks for fast reply.
    Sure I can...
    ffmpeg version N-50460-g393dcbf Copyright (c) 2000-2013 the FFmpeg developers
    built on Jun 27 2013 17:20:20 with gcc 4.6.2 (GCC)
    configuration: --enable-memalign-hack --arch=x86_64 --target-os=mingw32 --cross-prefix=x86_64-w64-mingw32- --enable-static --disable-shared --enable-zlib --disable-postproc --prefix=/home/peter/ffmpeg/build/gpl64 --enable-libmp3lame --enable-libx264 --enable-gpl --extra-libs='-lx264 -lpthread' --enable-runtime-cpudetect --extra-cflags=-I/home/peter/cc64/include --extra-ldflags=-L/home/peter/cc64/lib --pkg-config=pkg-config --disable-w32threads --enable-zlib
    libavutil 52. 17.103 / 52. 17.103
    libavcodec 54. 92.100 / 54. 92.100
    libavformat 54. 63.102 / 54. 63.102
    libavdevice 54. 3.103 / 54. 3.103
    libavfilter 3. 41.100 / 3. 41.100
    libswscale 2. 2.100 / 2. 2.100
    libswresample 0. 17.102 / 0. 17.102
    Input #0, matroska,webm, from 'G:\Movies\A.Walk.to.Remember.2002.720p.mkv':
    Metadata:
    creation_time : 2010-10-21 18:11:59
    Duration: 01:42:03.73, start: 0.000000, bitrate: 762 kb/s
    Stream #0:0(eng): Video: h264 (High), yuv420p, 1280x720, SAR 1:1 DAR 16:9, 23.98 fps, 23.98 tbr, 1k tbn, 47.95 tbc (default)
    Stream #0:1(eng): Audio: aac, 48000 Hz, stereo, fltp (default)
    Stream #0:2(eng): Subtitle: subrip (default)
    At least one output file must be specified

    <MEZZMO>: Child process ended with code: 109, ExitCode=1


    ---> DB Level Info: 40, 100
    ---> Frame rate: 23,98
    ---> Aspect ratio: 16:9 PAR=1:1

  4. #4
    Join Date
    Nov 2007
    Location
    Melbourne, Australia
    Posts
    11,616

    Default

    Please email us at support [at] conceiva [dot] com and we'll provide an update device profile to try.

    Mezzmo Android: Install it on your tablet, smartphone, Android TV or Amazon Fire to browse and stream files from your Mezzmo library to all your devices. Full details at http://www.conceiva.com/products/mez...mo_android.asp
    Mezzmo for Kodi Add-on: Install it into Kodi to stream files from your Mezzmo library directly in Kodi. Full details at http://www.mezzmo.com/wiki/doku.php?...odi_user_guide
    Mezzmo for Roku App: Install it onto your Roku to stream files from your Mezzmo library. Full details at http://www.mezzmo.com/wiki/doku.php?...oku_user_guide
    Wiki: User Guides & Reference Manual at http://www.mezzmo.com/wiki
    Facebook: http://www.facebook.com/Mezzmo.DLNA.Server
    Twitter: https://twitter.com/conceiva_mezzmo
    Web: http://www.mezzmo.com

Similar Threads

  1. How to Setup Transcoding to NOT Transcode On-The-Fly but ONLY Transcode Manuallly?
    By stevefoobar in forum Mezzmo Questions and Support
    Replies: 6
    Last Post: 10-22-2012, 04:03 PM
  2. Transcoding: list devices and transcode state - option to pre-transcode
    By Dillster in forum Mezzmo Wish List and Feedback
    Replies: 13
    Last Post: 01-06-2012, 04:30 PM
  3. Always transcode to a particular device?
    By badbob001 in forum Mezzmo Questions and Support
    Replies: 10
    Last Post: 07-26-2011, 02:10 PM
  4. PS3 and Mezmo 2.2 not works fine
    By Gerardjm in forum Mezzmo Questions and Support
    Replies: 1
    Last Post: 03-24-2011, 09:18 AM
  5. first start transcode, second start no transcode of MKV file?
    By djvdgalien in forum Mezzmo Questions and Support
    Replies: 5
    Last Post: 01-20-2011, 08:35 AM

Tags for this Thread

Bookmarks

Posting Permissions

  • You may not post new threads
  • You may not post replies
  • You may not post attachments
  • You may not edit your posts
  •