Results 1 to 2 of 2

Thread: Sony BDP-S373 mkv file error - data type is not supported

  1. #1
    Join Date
    Sep 2010
    Posts
    4

    Default Sony BDP-S373 mkv file error - data type is not supported

    I have three mkv files that I want to play with mezzmo over my Sony BDP-S373 PAL. It gives me a "data type not supported error". All other files play as expected. I have no clue what's wrong.

    For this reason I post the output for these three files. The forth is one that's working.

    Could someone give advise how to play this files over mezzmo stream????

    1.)

    FFmpeg version SVN-r24894, Copyright (c) 2000-2010 the FFmpeg developers
    built on Aug 24 2010 15:03:07 with gcc 4.4.0
    configuration: --enable-static --disable-shared --enable-memalign-hack --enable-libmp3lame --extra-cflags=-I/c/msys/local/include --extra-ldflags=-L/c/msys/local/lib --enable-zlib --enable-w32threads --extra-cflags=-fno-common --enable-gpl --enable-libx264 --disable-ffplay --disable-ffprobe --disable-ffserver --enable-runtime-cpudetect --extra-cflags=-U__STRICT_ANSI__
    libavutil 50.24. 0 / 50.24. 0
    libavcore 0. 6. 0 / 0. 6. 0
    libavcodec 52.86. 1 / 52.86. 1
    libavformat 52.78. 3 / 52.78. 3
    libavdevice 52. 2. 1 / 52. 2. 1
    libavfilter 1.37. 0 / 1.37. 0
    libswscale 0.11. 0 / 0.11. 0
    [matroska,webm @ 015fd0b0] max_analyze_duration reached
    [matroska,webm @ 015fd0b0] Estimating duration from bitrate, this may be inaccurate

    Stream #0.0(ger): Video: h264, yuv420p, 1280x720 [PAR 1:1 DAR 16:9], 23.98 fps, 23.98 tbr, 1k tbn, 47.95 tbc
    Metadata:
    title : XXXXXXXXXXXXXXXXXXXXXXXXXXXXXXXX

    Stream #0.1(ger): Audio: ac3, 48000 Hz, stereo, s16, 224 kb/s
    Metadata:
    title : Deutsch AC3 2.0 Dolby Surround @ 192 kbps
    Stream #0.2(eng): Audio: dca, 48000 Hz, 6 channels, s16
    Metadata:
    title : Englisch DTS 5.1 @ 755 kbps
    Stream #0.3(eng): Subtitle: [0][0][0][0] / 0x0000
    Metadata:
    title : Englisch
    At least one output file must be specified


    2.)

    FFmpeg version SVN-r24894, Copyright (c) 2000-2010 the FFmpeg developers
    built on Aug 24 2010 15:03:07 with gcc 4.4.0
    configuration: --enable-static --disable-shared --enable-memalign-hack --enable-libmp3lame --extra-cflags=-I/c/msys/local/include --extra-ldflags=-L/c/msys/local/lib --enable-zlib --enable-w32threads --extra-cflags=-fno-common --enable-gpl --enable-libx264 --disable-ffplay --disable-ffprobe --disable-ffserver --enable-runtime-cpudetect --extra-cflags=-U__STRICT_ANSI__
    libavutil 50.24. 0 / 50.24. 0
    libavcore 0. 6. 0 / 0. 6. 0
    libavcodec 52.86. 1 / 52.86. 1
    libavformat 52.78. 3 / 52.78. 3
    libavdevice 52. 2. 1 / 52. 2. 1
    libavfilter 1.37. 0 / 1.37. 0
    libswscale 0.11. 0 / 0.11. 0
    [matroska,webm @ 003dd0b0] max_analyze_duration reached
    [matroska,webm @ 003dd0b0] Estimating duration from bitrate, this may be inaccurate

    Stream #0.0(eng): Video: h264, yuv420p, 1280x536, PAR 1:1 DAR 160:67, 23.98 fps, 23.98 tbr, 1k tbn, 47.95 tbc
    Stream #0.1(ger): Audio: ac3, 48000 Hz, stereo, s16, 384 kb/s
    Stream #0.2(eng): Audio: dca, 48000 Hz, 6 channels, s16
    Stream #0.3(ger): Subtitle: [0][0][0][0] / 0x0000
    Stream #0.4(eng): Subtitle: [0][0][0][0] / 0x0000
    Stream #0.5(fre): Subtitle: [0][0][0][0] / 0x0000
    Stream #0.6(spa): Subtitle: [0][0][0][0] / 0x0000
    At least one output file must be specified


    3.)

    FFmpeg version SVN-r24894, Copyright (c) 2000-2010 the FFmpeg developers
    built on Aug 24 2010 15:03:07 with gcc 4.4.0
    configuration: --enable-static --disable-shared --enable-memalign-hack --enable-libmp3lame --extra-cflags=-I/c/msys/local/include --extra-ldflags=-L/c/msys/local/lib --enable-zlib --enable-w32threads --extra-cflags=-fno-common --enable-gpl --enable-libx264 --disable-ffplay --disable-ffprobe --disable-ffserver --enable-runtime-cpudetect --extra-cflags=-U__STRICT_ANSI__
    libavutil 50.24. 0 / 50.24. 0
    libavcore 0. 6. 0 / 0. 6. 0
    libavcodec 52.86. 1 / 52.86. 1
    libavformat 52.78. 3 / 52.78. 3
    libavdevice 52. 2. 1 / 52. 2. 1
    libavfilter 1.37. 0 / 1.37. 0
    libswscale 0.11. 0 / 0.11. 0
    [matroska,webm @ 0136d0b0] Estimating duration from bitrate, this may be inaccurate

    Stream #0.0(eng): Video: h264, yuv420p, 1920x1072, PAR 134:135 DAR 16:9, 25 fps, 25 tbr, 1k tbn, 50 tbc
    Metadata:
    title : x264 Videostream
    Stream #0.1(eng): Audio: ac3, 48000 Hz, 5.1, s16, 384 kb/s
    Metadata:
    title : DD 5.1
    Stream #0.2(ger): Audio: ac3, 48000 Hz, 5.1, s16, 320 kb/s
    Metadata:
    title : DD 5.1
    At least one output file must be specified




    4.) Work as expected

    FFmpeg version SVN-r24894, Copyright (c) 2000-2010 the FFmpeg developers
    built on Aug 24 2010 15:03:07 with gcc 4.4.0
    configuration: --enable-static --disable-shared --enable-memalign-hack --enable-libmp3lame --extra-cflags=-I/c/msys/local/include --extra-ldflags=-L/c/msys/local/lib --enable-zlib --enable-w32threads --extra-cflags=-fno-common --enable-gpl --enable-libx264 --disable-ffplay --disable-ffprobe --disable-ffserver --enable-runtime-cpudetect --extra-cflags=-U__STRICT_ANSI__
    libavutil 50.24. 0 / 50.24. 0
    libavcore 0. 6. 0 / 0. 6. 0
    libavcodec 52.86. 1 / 52.86. 1
    libavformat 52.78. 3 / 52.78. 3
    libavdevice 52. 2. 1 / 52. 2. 1
    libavfilter 1.37. 0 / 1.37. 0
    libswscale 0.11. 0 / 0.11. 0
    [matroska,webm @ 0125d0b0] Estimating duration from bitrate, this may be inaccurate

    Seems stream 0 codec frame rate differs from container frame rate: 47.95 (5000000/104271) -> 24.00 (24/1)

    Duration: 01:32:46.08, start: 0.000000, bitrate: 640 kb/s
    Stream #0.0(eng): Video: h264, yuv420p, 1920x1080, PAR 1:1 DAR 16:9, 23.98 fps, 24 tbr, 1k tbn, 47.95 tbc
    Stream #0.1(ger): Audio: ac3, 48000 Hz, 5.1, s16, 640 kb/s
    Metadata:
    title : German_AC3_640
    At least one output file must be specified
    Last edited by kathat; 09-13-2010 at 05:05 AM.

  2. #2
    Join Date
    Nov 2007
    Location
    Melbourne, Australia
    Posts
    11,616

    Default

    Please send a message to support (at) conceiva (dot) com and I'll send you an updated device profile for the Sony BDP - we've added support for streaming some MKVs natively to the BDP last week (still needs more testing, but maybe it'll get you going).

    Mezzmo Android: Install it on your tablet, smartphone, Android TV or Amazon Fire to browse and stream files from your Mezzmo library to all your devices. Full details at http://www.conceiva.com/products/mez...mo_android.asp
    Mezzmo for Kodi Add-on: Install it into Kodi to stream files from your Mezzmo library directly in Kodi. Full details at http://www.mezzmo.com/wiki/doku.php?...odi_user_guide
    Mezzmo for Roku App: Install it onto your Roku to stream files from your Mezzmo library. Full details at http://www.mezzmo.com/wiki/doku.php?...oku_user_guide
    Wiki: User Guides & Reference Manual at http://www.mezzmo.com/wiki
    Facebook: http://www.facebook.com/Mezzmo.DLNA.Server
    Twitter: https://twitter.com/conceiva_mezzmo
    Web: http://www.mezzmo.com

Tags for this Thread

Bookmarks

Posting Permissions

  • You may not post new threads
  • You may not post replies
  • You may not post attachments
  • You may not edit your posts
  •