Page 1 of 3 123 LastLast
Results 1 to 10 of 26

Thread: Gapless multifile feature doesnt work with flac but works with mp3

  1. #1
    Join Date
    Mar 2014
    Posts
    17

    Default Gapless multifile feature doesnt work with flac but works with mp3

    Im demoing the mezzmo 3.4 and when i created a gapless multifile flac, it only plays the first file then stops after the track and doesnt continue to play the rest of the tracks. With mp3, it plays all gaplessly with no problem. Anything i need to do to make this work?

  2. #2
    Join Date
    Nov 2007
    Location
    Melbourne, Australia
    Posts
    11,616

    Default

    Gapless music streaming is dependent on the device you are streaming to (i.e. it has to be able to decode and play gapless music). Your device may be able to play gapless MP3s but may not be able to play gapless FLAC. What device do you have and what device profile is assigned to your device? Go to the Media Devices dialog to see this. We may need to tweak the device profile. Also, post the FFmpeg information for one of the FLAC files that you have inside your gapless FLAC. Right-click on the FLAC in Mezzmo and click 'Get FFmpeg Information'.

    Mezzmo Android: Install it on your tablet, smartphone, Android TV or Amazon Fire to browse and stream files from your Mezzmo library to all your devices. Full details at http://www.conceiva.com/products/mez...mo_android.asp
    Mezzmo for Kodi Add-on: Install it into Kodi to stream files from your Mezzmo library directly in Kodi. Full details at http://www.mezzmo.com/wiki/doku.php?...odi_user_guide
    Mezzmo for Roku App: Install it onto your Roku to stream files from your Mezzmo library. Full details at http://www.mezzmo.com/wiki/doku.php?...oku_user_guide
    Wiki: User Guides & Reference Manual at http://www.mezzmo.com/wiki
    Facebook: http://www.facebook.com/Mezzmo.DLNA.Server
    Twitter: https://twitter.com/conceiva_mezzmo
    Web: http://www.mezzmo.com

  3. #3
    Join Date
    Mar 2014
    Posts
    17

    Default

    Hi Paul,

    I'm using a Marantz NA-7004. Here is the info you are asking. By the way i'm using the Mezzo Feature Gapless Multifile(you select multiple files and make them play gapless).

    ffmpeg version N-50460-g393dcbf Copyright (c) 2000-2013 the FFmpeg developers
    built on Jun 27 2013 17:20:20 with gcc 4.6.2 (GCC)
    configuration: --enable-memalign-hack --arch=x86_64 --target-os=mingw32 --cross-prefix=x86_64-w64-mingw32- --enable-static --disable-shared --enable-zlib --disable-postproc --prefix=/home/peter/ffmpeg/build/gpl64 --enable-libmp3lame --enable-libx264 --enable-gpl --extra-libs='-lx264 -lpthread' --enable-runtime-cpudetect --extra-cflags=-I/home/peter/cc64/include --extra-ldflags=-L/home/peter/cc64/lib --pkg-config=pkg-config --disable-w32threads --enable-zlib
    libavutil 52. 17.103 / 52. 17.103
    libavcodec 54. 92.100 / 54. 92.100
    libavformat 54. 63.102 / 54. 63.102
    libavdevice 54. 3.103 / 54. 3.103
    libavfilter 3. 41.100 / 3. 41.100
    libswscale 2. 2.100 / 2. 2.100
    libswresample 0. 17.102 / 0. 17.102
    [flac @ 000000000159f460] Stream #1: not enough frames to estimate rate; consider increasing probesize
    Input #0, flac, from 'pipe:':
    Metadata:
    ALBUM : Blue Bossa
    ALBUM ARTIST : Ana Caram
    ARTIST : Ana Caram
    DATE : 2002
    GENRE : Latin Jazz / Bossa Nova
    HDTRACKS : www.hdtracks.com
    TITLE : Desafinado
    TOTALTRACKS : 12
    track : 1
    Duration: 00:04:23.08, bitrate: N/A
    Stream #0:0: Audio: flac, 96000 Hz, stereo, s32
    Stream #0:1: Video: mjpeg, yuvj420p, 300x300 [SAR 72:72 DAR 1:1], 90k tbr, 90k tbn, 90k tbc
    Metadata:
    comment : Cover (front)
    At least one output file must be specified

    <MEZZMO>: Child process ended with code: 109, ExitCode=1


    ---> DB Level Info: 0, -99
    ---> Frame rate:
    ---> Aspect ratio:

  4. #4
    Join Date
    Nov 2007
    Location
    Melbourne, Australia
    Posts
    11,616

    Default

    Please email us at support [at] conceiva [dot] com and we'll provide an updated device profile.

    Mezzmo Android: Install it on your tablet, smartphone, Android TV or Amazon Fire to browse and stream files from your Mezzmo library to all your devices. Full details at http://www.conceiva.com/products/mez...mo_android.asp
    Mezzmo for Kodi Add-on: Install it into Kodi to stream files from your Mezzmo library directly in Kodi. Full details at http://www.mezzmo.com/wiki/doku.php?...odi_user_guide
    Mezzmo for Roku App: Install it onto your Roku to stream files from your Mezzmo library. Full details at http://www.mezzmo.com/wiki/doku.php?...oku_user_guide
    Wiki: User Guides & Reference Manual at http://www.mezzmo.com/wiki
    Facebook: http://www.facebook.com/Mezzmo.DLNA.Server
    Twitter: https://twitter.com/conceiva_mezzmo
    Web: http://www.mezzmo.com

  5. #5
    Join Date
    Mar 2014
    Posts
    17

    Default

    Quote Originally Posted by Paul View Post
    Please email us at support [at] conceiva [dot] com and we'll provide an updated device profile.
    Hi Paul,

    I just sent an e-mail to the e-mail address you specified. Will be waiting for your reply. Also please include instruction on how to update the device profile. Thanks again for your support.

  6. #6
    Join Date
    Mar 2014
    Posts
    17

    Default

    Hi Paul,

    I just received the Updated Profile for my device. Will update it later. Thanks for the quick response and help.

  7. #7
    Join Date
    Nov 2007
    Location
    Melbourne, Australia
    Posts
    11,616

    Default

    OK - let us know how it goes.

    Mezzmo Android: Install it on your tablet, smartphone, Android TV or Amazon Fire to browse and stream files from your Mezzmo library to all your devices. Full details at http://www.conceiva.com/products/mez...mo_android.asp
    Mezzmo for Kodi Add-on: Install it into Kodi to stream files from your Mezzmo library directly in Kodi. Full details at http://www.mezzmo.com/wiki/doku.php?...odi_user_guide
    Mezzmo for Roku App: Install it onto your Roku to stream files from your Mezzmo library. Full details at http://www.mezzmo.com/wiki/doku.php?...oku_user_guide
    Wiki: User Guides & Reference Manual at http://www.mezzmo.com/wiki
    Facebook: http://www.facebook.com/Mezzmo.DLNA.Server
    Twitter: https://twitter.com/conceiva_mezzmo
    Web: http://www.mezzmo.com

  8. #8
    Join Date
    Mar 2014
    Posts
    17

    Default

    Hi Paul,

    Tested it now. Replaced the Device profile with the one you guys sent me and issue still same.. It only plays the first track of the single file then stops after playing. Here is the info of the file.

    I tried to transcode it then chooses the mp3 format and it plays gaplessly. I guess it's really flac's thats affected..

    ffmpeg version N-50460-g393dcbf Copyright (c) 2000-2013 the FFmpeg developers
    built on Jun 27 2013 17:20:20 with gcc 4.6.2 (GCC)
    configuration: --enable-memalign-hack --arch=x86_64 --target-os=mingw32 --cross-prefix=x86_64-w64-mingw32- --enable-static --disable-shared --enable-zlib --disable-postproc --prefix=/home/peter/ffmpeg/build/gpl64 --enable-libmp3lame --enable-libx264 --enable-gpl --extra-libs='-lx264 -lpthread' --enable-runtime-cpudetect --extra-cflags=-I/home/peter/cc64/include --extra-ldflags=-L/home/peter/cc64/lib --pkg-config=pkg-config --disable-w32threads --enable-zlib
    libavutil 52. 17.103 / 52. 17.103
    libavcodec 54. 92.100 / 54. 92.100
    libavformat 54. 63.102 / 54. 63.102
    libavdevice 54. 3.103 / 54. 3.103
    libavfilter 3. 41.100 / 3. 41.100
    libswscale 2. 2.100 / 2. 2.100
    libswresample 0. 17.102 / 0. 17.102
    [flac @ 000000000159f460] max_analyze_duration 60000000 reached at 60000000 microseconds
    Input #0, flac, from 'pipe:':
    Metadata:
    ALBUM : Rio After Dark
    ALBUM ARTIST : Ana Caram
    ARTIST : Ana Caram
    DATE : 2003
    GENRE : Brazilian Jazz / Bossa Nova
    HDTRACKS : www.hdtracks.com
    TITLE : Rio After Dark
    TOTALTRACKS : 15
    track : 1
    Duration: 00:03:54.79, bitrate: N/A
    Stream #0:0: Audio: flac, 96000 Hz, stereo, s32
    Stream #0:1: Video: mjpeg, yuvj420p, 300x300 [SAR 72:72 DAR 1:1], 90k tbr, 90k tbn, 90k tbc
    Metadata:
    comment : Cover (front)
    At least one output file must be specified

    <MEZZMO>: Child process ended with code: 109, ExitCode=1


    ---> DB Level Info: 0, -99
    ---> Frame rate:
    ---> Aspect ratio:

  9. #9
    Join Date
    Mar 2014
    Posts
    17

    Default

    Hi Paul,

    Just wanted to ask if there's an update regarding this? Thanks

  10. #10
    Join Date
    Nov 2007
    Location
    Melbourne, Australia
    Posts
    11,616

    Default

    Hi Jason,

    Please turn on logging in Mezzmo (see http://forum.conceiva.com/showthread...nostic-logging) and restart your Mezzmo server. Right-click on the gapless FLAC and click Properties. On the Properties dialog, go to the Transcoding tab and delete all transcoded files. Now stream the gapless FLAC to your Marantz and when it only plays the first track, stop your Mezzmo server and exit Mezzmo. Zip up all the logs and email them to us at support [at] conceiva [dot] com.

    Mezzmo Android: Install it on your tablet, smartphone, Android TV or Amazon Fire to browse and stream files from your Mezzmo library to all your devices. Full details at http://www.conceiva.com/products/mez...mo_android.asp
    Mezzmo for Kodi Add-on: Install it into Kodi to stream files from your Mezzmo library directly in Kodi. Full details at http://www.mezzmo.com/wiki/doku.php?...odi_user_guide
    Mezzmo for Roku App: Install it onto your Roku to stream files from your Mezzmo library. Full details at http://www.mezzmo.com/wiki/doku.php?...oku_user_guide
    Wiki: User Guides & Reference Manual at http://www.mezzmo.com/wiki
    Facebook: http://www.facebook.com/Mezzmo.DLNA.Server
    Twitter: https://twitter.com/conceiva_mezzmo
    Web: http://www.mezzmo.com

Similar Threads

  1. Sony STR-DN1040 - Stream FLAC instead of MP3???
    By SLPopp in forum Mezzmo Questions and Support
    Replies: 15
    Last Post: 08-28-2015, 08:41 AM
  2. Gapless Multi (DVD combined VOBS) and their artwork
    By andymoz in forum Mezzmo Questions and Support
    Replies: 1
    Last Post: 09-06-2013, 09:14 AM
  3. FLAC sounds worse than MP3
    By caustic386 in forum Mezzmo Questions and Support
    Replies: 1
    Last Post: 06-18-2013, 09:44 AM
  4. Annother BUG.. Maybe by design? Hope not. Doesnt pull lyrics from mp3?
    By pir8radio in forum Mezzmo Questions and Support
    Replies: 1
    Last Post: 01-19-2011, 01:12 PM
  5. Apple Movie Trailer RSS doesnt work
    By eblikstad in forum DownloadStudio Questions and Support
    Replies: 2
    Last Post: 05-03-2009, 05:01 PM

Tags for this Thread

Bookmarks

Posting Permissions

  • You may not post new threads
  • You may not post replies
  • You may not post attachments
  • You may not edit your posts
  •