Results 1 to 2 of 2

Thread: No Video for MKV transcoding

  1. #1

    Default No Video for MKV transcoding

    I recently switched to Mezzmo from another DLNA media server. It appears your software has a much higher compliance profile with my 2013 Viera VT60. I was constantly reading their threads and tweaking my profile for problems (I will discuss the forced subtitles issue in another thread). The same problem I had on the other software is similar on Mezzmo. I am having a lag / pause and no video, but audio on an MKV file. On the other software profile, I was instructed to add the follow line in a certain part of my profile (which corrected this problem):

    <Matches container="matroska" vCodec="h264" profile="high" />

    Is a similar modification needed for your profile? The details of the failing file are below:

    General
    Unique ID : 177447311429149355743133956105597485185 (0x857F1BEB918BA1FD887249A611BE0081)
    Complete name : C:\Users\M.J. Bennicelli\Videos\The Final Countdown (1980).mkv
    Format : Matroska
    Format version : Version 1
    File size : 1.37 GiB
    Duration : 1h 42mn
    Overall bit rate : 1 906 Kbps
    Encoded date : UTC 2008-11-12 11:48:48
    Writing application : mkvmerge v2.3.0 ('Freak U') built on Sep 8 2008 18:32:16
    Writing library : libebml v0.7.7 + libmatroska v0.8.1

    Video
    ID : 1
    Format : AVC
    Format/Info : Advanced Video Codec
    Format profile : High@L4.0
    Format settings, CABAC : Yes
    Format settings, ReFrames : 16 frames
    Codec ID : V_MPEG4/ISO/AVC
    Duration : 1h 42mn
    Bit rate : 1 519 Kbps
    Width : 1 056 pixels
    Height : 448 pixels
    Display aspect ratio : 2.35:1
    Frame rate mode : Constant
    Frame rate : 23.976 fps
    Color space : YUV
    Chroma subsampling : 4:2:0
    Bit depth : 8 bits
    Scan type : Progressive
    Bits/(Pixel*Frame) : 0.134
    Stream size : 1.06 GiB (78%)
    Writing library : x264 core 65 r1024M 2652abe
    Encoding settings : cabac=1 / ref=16 / deblock=1:-2:-1 / analyse=0x3:0x113 / me=umh / subme=7 / psy_rd=1.0:0.0 / mixed_ref=1 / me_range=16 / chroma_me=1 / trellis=2 / 8x8dct=1 / cqm=0 / deadzone=21,11 / chroma_qp_offset=-2 / threads=4 / nr=0 / decimate=0 / mbaff=0 / bframes=16 / b_pyramid=1 / b_adapt=1 / b_bias=0 / direct=3 / wpredb=1 / keyint=250 / keyint_min=25 / scenecut=40(pre) / rc=2pass / bitrate=1519 / ratetol=1.0 / qcomp=0.60 / qpmin=10 / qpmax=51 / qpstep=4 / cplxblur=20.0 / qblur=0.5 / ip_ratio=1.40 / pb_ratio=1.30 / aq=1:1.00
    Language : English
    Default : Yes
    Forced : No

    Audio
    ID : 2
    Format : AC-3
    Format/Info : Audio Coding 3
    Mode extension : CM (complete main)
    Format settings, Endianness : Big
    Codec ID : A_AC3
    Duration : 1h 42mn
    Bit rate mode : Constant
    Bit rate : 384 Kbps
    Channel(s) : 6 channels
    Channel positions : Front: L C R, Side: L R, LFE
    Sampling rate : 48.0 KHz
    Bit depth : 16 bits
    Compression mode : Lossy
    Stream size : 282 MiB (20%)
    Default : Yes
    Forced : No

  2. #2
    Join Date
    Nov 2007
    Location
    Melbourne, Australia
    Posts
    11,616

    Default

    Please email us at support [at] conceiva [dot] com and we'll provide an updated device profile to try.

    Mezzmo Android: Install it on your tablet, smartphone, Android TV or Amazon Fire to browse and stream files from your Mezzmo library to all your devices. Full details at http://www.conceiva.com/products/mez...mo_android.asp
    Mezzmo for Kodi Add-on: Install it into Kodi to stream files from your Mezzmo library directly in Kodi. Full details at http://www.mezzmo.com/wiki/doku.php?...odi_user_guide
    Mezzmo for Roku App: Install it onto your Roku to stream files from your Mezzmo library. Full details at http://www.mezzmo.com/wiki/doku.php?...oku_user_guide
    Wiki: User Guides & Reference Manual at http://www.mezzmo.com/wiki
    Facebook: http://www.facebook.com/Mezzmo.DLNA.Server
    Twitter: https://twitter.com/conceiva_mezzmo
    Web: http://www.mezzmo.com

Similar Threads

  1. Transcoding MKV with DTS to LG 32LE5500 MKV with ac3 Requirementsproblem
    By bomag in forum Mezzmo Questions and Support
    Replies: 2
    Last Post: 10-08-2012, 04:34 PM
  2. Transcoding MKV files.
    By Soulscode in forum Mezzmo Questions and Support
    Replies: 3
    Last Post: 04-13-2012, 09:05 AM
  3. Why are these MKV files not transcoding?
    By Richie67 in forum Mezzmo Questions and Support
    Replies: 4
    Last Post: 01-19-2012, 08:45 AM
  4. Pre Transcoding mkv files
    By Raza in forum Mezzmo Questions and Support
    Replies: 6
    Last Post: 10-03-2011, 09:46 AM
  5. Some mkv files play video and some others don't
    By pdd-antonio in forum Mezzmo Questions and Support
    Replies: 3
    Last Post: 11-30-2010, 02:25 AM

Tags for this Thread

Bookmarks

Posting Permissions

  • You may not post new threads
  • You may not post replies
  • You may not post attachments
  • You may not edit your posts
  •