Page 1 of 2 12 LastLast
Results 1 to 10 of 11

Thread: DTS Audio not playing on some videos Panasonic Viera VT60

  1. #1

    Default DTS Audio not playing on some videos Panasonic Viera VT60

    I have a couple movies where the DTS audio appears not to be transcoding. My TV is a Panasonic Viera VT60 using the new Panasonic 2013 profile. I tried a remux with no change. One movie that is not playing DTS audio has the following ffmpeg:

    ffmpeg version N-50460-g393dcbf Copyright (c) 2000-2013 the FFmpeg developers
    built on Jun 27 2013 17:20:20 with gcc 4.6.2 (GCC)
    configuration: --enable-memalign-hack --arch=x86_64 --target-os=mingw32 --cross-prefix=x86_64-w64-mingw32- --enable-static --disable-shared --enable-zlib --disable-postproc --prefix=/home/peter/ffmpeg/build/gpl64 --enable-libmp3lame --enable-libx264 --enable-gpl --extra-libs='-lx264 -lpthread' --enable-runtime-cpudetect --extra-cflags=-I/home/peter/cc64/include --extra-ldflags=-L/home/peter/cc64/lib --pkg-config=pkg-config --disable-w32threads --enable-zlib
    libavutil 52. 17.103 / 52. 17.103
    libavcodec 54. 92.100 / 54. 92.100
    libavformat 54. 63.102 / 54. 63.102
    libavdevice 54. 3.103 / 54. 3.103
    libavfilter 3. 41.100 / 3. 41.100
    libswscale 2. 2.100 / 2. 2.100
    libswresample 0. 17.102 / 0. 17.102
    [matroska,webm @ 000000000159f460] max_analyze_duration 60000000 reached at 60000000 microseconds
    [matroska,webm @ 000000000159f460] Could not find codec parameters for stream 4 (Subtitle: hdmv_pgs_subtitle): unspecified size
    Consider increasing the value for the 'analyzeduration' and 'probesize' options
    [matroska,webm @ 000000000159f460] Could not find codec parameters for stream 5 (Subtitle: hdmv_pgs_subtitle): unspecified size
    Consider increasing the value for the 'analyzeduration' and 'probesize' options
    [matroska,webm @ 000000000159f460] Could not find codec parameters for stream 6 (Subtitle: hdmv_pgs_subtitle): unspecified size
    Consider increasing the value for the 'analyzeduration' and 'probesize' options
    [matroska,webm @ 000000000159f460] Could not find codec parameters for stream 7 (Subtitle: hdmv_pgs_subtitle): unspecified size
    Consider increasing the value for the 'analyzeduration' and 'probesize' options
    [matroska,webm @ 000000000159f460] Could not find codec parameters for stream 11 (Subtitle: hdmv_pgs_subtitle): unspecified size
    Consider increasing the value for the 'analyzeduration' and 'probesize' options
    [matroska,webm @ 000000000159f460] Could not find codec parameters for stream 12 (Subtitle: hdmv_pgs_subtitle): unspecified size
    Consider increasing the value for the 'analyzeduration' and 'probesize' options
    [matroska,webm @ 000000000159f460] Could not find codec parameters for stream 13 (Subtitle: hdmv_pgs_subtitle): unspecified size
    Consider increasing the value for the 'analyzeduration' and 'probesize' options
    [matroska,webm @ 000000000159f460] Could not find codec parameters for stream 15 (Subtitle: hdmv_pgs_subtitle): unspecified size
    Consider increasing the value for the 'analyzeduration' and 'probesize' options
    [matroska,webm @ 000000000159f460] Could not find codec parameters for stream 16 (Subtitle: hdmv_pgs_subtitle): unspecified size
    Consider increasing the value for the 'analyzeduration' and 'probesize' options
    [matroska,webm @ 000000000159f460] Could not find codec parameters for stream 18 (Subtitle: hdmv_pgs_subtitle): unspecified size
    Consider increasing the value for the 'analyzeduration' and 'probesize' options
    [matroska,webm @ 000000000159f460] Could not find codec parameters for stream 22 (Subtitle: hdmv_pgs_subtitle): unspecified size
    Consider increasing the value for the 'analyzeduration' and 'probesize' options
    [matroska,webm @ 000000000159f460] Could not find codec parameters for stream 23 (Subtitle: hdmv_pgs_subtitle): unspecified size
    Consider increasing the value for the 'analyzeduration' and 'probesize' options
    [matroska,webm @ 000000000159f460] Could not find codec parameters for stream 25 (Subtitle: hdmv_pgs_subtitle): unspecified size
    Consider increasing the value for the 'analyzeduration' and 'probesize' options
    Input #0, matroska,webm, from 'C:\Users\M.J. Bennicelli\Videos\Dr No (1962).(Bond.50).Bluray.1080p.DTS-HD.x264.mkv':
    Metadata:
    creation_time : 2013-05-14 00:51:18
    Duration: 01:49:50.46, start: 0.000000, bitrate: 17987 kb/s
    Chapter #0.0: start 0.000000, end 170.670000
    Metadata:
    title : 00:00:00.000
    Chapter #0.1: start 170.670000, end 393.684000
    Metadata:
    title : 00:02:50.670
    Chapter #0.2: start 393.684000, end 581.914000
    Metadata:
    title : 00:06:33.684
    Chapter #0.3: start 581.914000, end 986.860000
    Metadata:
    title : 00:09:41.914
    Chapter #0.4: start 986.860000, end 1140.848000
    Metadata:
    title : 00:16:26.860
    Chapter #0.5: start 1140.848000, end 1326.491000
    Metadata:
    title : 00:19:00.848
    Chapter #0.6: start 1326.491000, end 1472.471000
    Metadata:
    title : 00:22:06.491
    Chapter #0.7: start 1472.471000, end 1603.602000
    Metadata:
    title : 00:24:32.471
    Chapter #0.8: start 1603.602000, end 1708.123000
    Metadata:
    title : 00:26:43.602
    Chapter #0.9: start 1708.123000, end 1882.255000
    Metadata:
    title : 00:28:28.123
    Chapter #0.10: start 1882.255000, end 2167.582000
    Metadata:
    title : 00:31:22.255
    Chapter #0.11: start 2167.582000, end 2259.257000
    Metadata:
    title : 00:36:07.582
    Chapter #0.12: start 2259.257000, end 2478.058000
    Metadata:
    title : 00:37:39.257
    Chapter #0.13: start 2478.058000, end 2678.217000
    Metadata:
    title : 00:41:18.058
    Chapter #0.14: start 2678.217000, end 2804.676000
    Metadata:
    title : 00:44:38.217
    Chapter #0.15: start 2804.676000, end 2898.896000
    Metadata:
    title : 00:46:44.676
    Chapter #0.16: start 2898.896000, end 3084.247000
    Metadata:
    title : 00:48:18.896
    Chapter #0.17: start 3084.247000, end 3328.575000
    Metadata:
    title : 00:51:24.247
    Chapter #0.18: start 3328.575000, end 3530.109000
    Metadata:
    title : 00:55:28.575
    Chapter #0.19: start 3530.109000, end 3715.920000
    Metadata:
    title : 00:58:50.109
    Chapter #0.20: start 3715.920000, end 4088.125000
    Metadata:
    title : 01:01:55.920
    Chapter #0.21: start 4088.125000, end 4359.855000
    Metadata:
    title : 01:08:08.125
    Chapter #0.22: start 4359.855000, end 4517.930000
    Metadata:
    title : 01:12:39.855
    Chapter #0.23: start 4517.930000, end 4684.304000
    Metadata:
    title : 01:15:17.930
    Chapter #0.24: start 4684.304000, end 4854.432000
    Metadata:
    title : 01:18:04.304
    Chapter #0.25: start 4854.432000, end 5188.600000
    Metadata:
    title : 01:20:54.432
    Chapter #0.26: start 5188.600000, end 5640.760000
    Metadata:
    title : 01:26:28.600
    Chapter #0.27: start 5640.760000, end 5943.270000
    Metadata:
    title : 01:34:00.760
    Chapter #0.28: start 5943.270000, end 6185.429000
    Metadata:
    title : 01:39:03.270
    Chapter #0.29: start 6185.429000, end 6319.021000
    Metadata:
    title : 01:43:05.429
    Chapter #0.30: start 6319.021000, end 6450.193000
    Metadata:
    title : 01:45:19.021
    Chapter #0.31: start 6450.193000, end 6590.208000
    Metadata:
    title : 01:47:30.193
    Chapter #0.32: start 6590.208000, end 6590.464000
    Metadata:
    title : 01:49:50.208
    Stream #0:0(eng): Video: h264 (High), yuv420p, 1920x1080, SAR 1:1 DAR 16:9, 23.98 fps, 23.98 tbr, 1k tbn, 47.95 tbc (default)
    Metadata:
    title : Dr.No.1962.(Bond.50).Bluray.1080p.DTS-HD.x264-Grym
    Stream #0:1(eng): Audio: dts (DTS-HD MA), 48000 Hz, 5.1(side), fltp, 1536 kb/s (default)
    Metadata:
    title : DTS-HD MA-5.1
    Stream #0:2(eng): Audio: ac3, 48000 Hz, stereo, fltp, 224 kb/s
    Metadata:
    title : AC3 192 kbps 2.0 - Commentary
    Stream #0:3(chi): Subtitle: hdmv_pgs_subtitle
    Stream #0:4(cze): Subtitle: hdmv_pgs_subtitle
    Stream #0:5(cze): Subtitle: hdmv_pgs_subtitle
    Stream #0:6(dan): Subtitle: hdmv_pgs_subtitle
    Stream #0:7(dut): Subtitle: hdmv_pgs_subtitle
    Stream #0:8(dut): Subtitle: hdmv_pgs_subtitle
    Stream #0:9(eng): Subtitle: hdmv_pgs_subtitle
    Stream #0:10(eng): Subtitle: hdmv_pgs_subtitle
    Stream #0:11(fin): Subtitle: hdmv_pgs_subtitle
    Stream #0:12(fre): Subtitle: hdmv_pgs_subtitle
    Stream #0:13(fre): Subtitle: hdmv_pgs_subtitle
    Stream #0:14(fre): Subtitle: hdmv_pgs_subtitle
    Stream #0:15(ger): Subtitle: hdmv_pgs_subtitle
    Stream #0:16(ger): Subtitle: hdmv_pgs_subtitle
    Stream #0:17(ger): Subtitle: hdmv_pgs_subtitle
    Stream #0:18(nor): Subtitle: hdmv_pgs_subtitle
    Stream #0:19(por): Subtitle: hdmv_pgs_subtitle
    Stream #0:20(por): Subtitle: hdmv_pgs_subtitle
    Stream #0:21(por): Subtitle: hdmv_pgs_subtitle
    Stream #0:22(spa): Subtitle: hdmv_pgs_subtitle
    Stream #0:23(spa): Subtitle: hdmv_pgs_subtitle
    Stream #0:24(spa): Subtitle: hdmv_pgs_subtitle
    Stream #0:25(swe): Subtitle: hdmv_pgs_subtitle
    At least one output file must be specified

    <MEZZMO>: Child process ended with code: 109, ExitCode=1


    ---> DB Level Info: 41, 100
    ---> Frame rate: 23.98
    ---> Aspect ratio: 16:9 PAR=1:1

  2. #2
    Join Date
    Nov 2007
    Location
    Melbourne, Australia
    Posts
    11,599

    Default

    Instead of re-muxing the DTS audio, I suggest you fully transcode the DTS audio and that may help. Right-click on the video in Mezzmo and click 'Pre-transcode Files'. On the Pre-transcode Files dialog, select your device and click 'Choose Formats'. On the Pre-transcoding Formats dialog, select the bolded format and select the 'Force full transcode' checkbox. Click OK to start transcoding. When transcoding has completed, try streaming the video now.

    Mezzmo Android: Install it on your tablet, smartphone, Android TV or Amazon Fire to browse and stream files from your Mezzmo library to all your devices. Full details at http://www.conceiva.com/products/mez...mo_android.asp
    Mezzmo for Kodi Add-on: Install it into Kodi to stream files from your Mezzmo library directly in Kodi. Full details at http://www.mezzmo.com/wiki/doku.php?...odi_user_guide
    Mezzmo for Roku App: Install it onto your Roku to stream files from your Mezzmo library. Full details at http://www.mezzmo.com/wiki/doku.php?...oku_user_guide
    Wiki: User Guides & Reference Manual at http://www.mezzmo.com/wiki
    Facebook: http://www.facebook.com/Mezzmo.DLNA.Server
    Twitter: https://twitter.com/conceiva_mezzmo
    Web: http://www.mezzmo.com

  3. #3

    Default

    I had previously submitted this thread for the video noted, but it appears to happen with a number I have acquired. Pre-transcoding does not correct the problem. I noticed something that appears to be common throughout all that have audio playback problems with DTS. When looking at the media info for each, the audio stream lists the language as "english, unknown." Other DTS audio streams that play correctly display "english" only. When I go to a header editor, the language always appears as "english" only. I cannot find how the audio stream acquires the "english, unknown" designation.

  4. #4

    Default

    After further investigation, the problem with my DTS audio appears to be with the bit rate mode and the bit rate. The DTS files that play have a constant bit rate, the bit rate is 1509 kbps and the compression is lossy. The DTS files that will not play audio are variable bit rate, unknown 1509 kbps bit rate and compression lossless/lossy. Does that help in your diagnosis?

  5. #5
    Join Date
    Nov 2007
    Location
    Melbourne, Australia
    Posts
    11,599

    Default

    Thanks for the further information. Please provide the FFmpeg information for a file that does play and one that does not play. Right-click on a video and click 'Get FFmpeg Information' to provide this information. Also, let us know the device profile that you are using with your TV. Go to the Media Devices dialog to see this.

    Mezzmo Android: Install it on your tablet, smartphone, Android TV or Amazon Fire to browse and stream files from your Mezzmo library to all your devices. Full details at http://www.conceiva.com/products/mez...mo_android.asp
    Mezzmo for Kodi Add-on: Install it into Kodi to stream files from your Mezzmo library directly in Kodi. Full details at http://www.mezzmo.com/wiki/doku.php?...odi_user_guide
    Mezzmo for Roku App: Install it onto your Roku to stream files from your Mezzmo library. Full details at http://www.mezzmo.com/wiki/doku.php?...oku_user_guide
    Wiki: User Guides & Reference Manual at http://www.mezzmo.com/wiki
    Facebook: http://www.facebook.com/Mezzmo.DLNA.Server
    Twitter: https://twitter.com/conceiva_mezzmo
    Web: http://www.mezzmo.com

  6. #6

    Default

    I am using the Panasonic 2013 profile.

    Does not play DTS:
    ffmpeg version N-50460-g393dcbf Copyright (c) 2000-2013 the FFmpeg developers
    built on Jun 27 2013 17:20:20 with gcc 4.6.2 (GCC)
    configuration: --enable-memalign-hack --arch=x86_64 --target-os=mingw32 --cross-prefix=x86_64-w64-mingw32- --enable-static --disable-shared --enable-zlib --disable-postproc --prefix=/home/peter/ffmpeg/build/gpl64 --enable-libmp3lame --enable-libx264 --enable-gpl --extra-libs='-lx264 -lpthread' --enable-runtime-cpudetect --extra-cflags=-I/home/peter/cc64/include --extra-ldflags=-L/home/peter/cc64/lib --pkg-config=pkg-config --disable-w32threads --enable-zlib
    libavutil 52. 17.103 / 52. 17.103
    libavcodec 54. 92.100 / 54. 92.100
    libavformat 54. 63.102 / 54. 63.102
    libavdevice 54. 3.103 / 54. 3.103
    libavfilter 3. 41.100 / 3. 41.100
    libswscale 2. 2.100 / 2. 2.100
    libswresample 0. 17.102 / 0. 17.102
    Input #0, matroska,webm, from 'C:\Users\M.J. Bennicelli\Videos\Argo.2012.Bluray.1080p.DTS-HD.x264.mkv':
    Metadata:
    creation_time : 2014-05-08 23:09:58
    Duration: 02:00:23.23, start: 0.000000, bitrate: 17944 kb/s
    Chapter #0.0: start 0.000000, end 759.759000
    Metadata:
    title : 00:00:00.000
    Chapter #0.1: start 759.759000, end 1176.091000
    Metadata:
    title : 00:12:39.759
    Chapter #0.2: start 1176.091000, end 1739.571000
    Metadata:
    title : 00:19:36.091
    Chapter #0.3: start 1739.571000, end 2568.607000
    Metadata:
    title : 00:28:59.571
    Chapter #0.4: start 2568.607000, end 3001.540000
    Metadata:
    title : 00:42:48.607
    Chapter #0.5: start 3001.540000, end 3600.054000
    Metadata:
    title : 00:50:01.540
    Chapter #0.6: start 3600.054000, end 4149.520000
    Metadata:
    title : 01:00:00.054
    Chapter #0.7: start 4149.520000, end 4786.823000
    Metadata:
    title : 01:09:09.520
    Chapter #0.8: start 4786.823000, end 5414.117000
    Metadata:
    title : 01:19:46.823
    Chapter #0.9: start 5414.117000, end 5940.851000
    Metadata:
    title : 01:30:14.117
    Chapter #0.10: start 5940.851000, end 6694.771000
    Metadata:
    title : 01:39:00.851
    Chapter #0.11: start 6694.771000, end 7221.964000
    Metadata:
    title : 01:51:34.771
    Chapter #0.12: start 7221.964000, end 7223.232000
    Metadata:
    title : 02:00:21.964
    Stream #0:0: Video: h264 (High), yuv420p, 1920x1080, SAR 1:1 DAR 16:9, 23.98 fps, 23.98 tbr, 1k tbn, 47.95 tbc (default)
    Stream #0:1(eng): Audio: dts (DTS-HD MA), 48000 Hz, 5.1(side), fltp, 1536 kb/s (default)
    Stream #0:2(eng): Audio: ac3, 48000 Hz, stereo, fltp, 192 kb/s
    At least one output file must be specified

    <MEZZMO>: Child process ended with code: 109, ExitCode=1


    ---> DB Level Info: 41, 100
    ---> Frame rate: 23.98
    ---> Aspect ratio: 16:9 PAR=1:1

    Does play:
    ffmpeg version N-50460-g393dcbf Copyright (c) 2000-2013 the FFmpeg developers
    built on Jun 27 2013 17:20:20 with gcc 4.6.2 (GCC)
    configuration: --enable-memalign-hack --arch=x86_64 --target-os=mingw32 --cross-prefix=x86_64-w64-mingw32- --enable-static --disable-shared --enable-zlib --disable-postproc --prefix=/home/peter/ffmpeg/build/gpl64 --enable-libmp3lame --enable-libx264 --enable-gpl --extra-libs='-lx264 -lpthread' --enable-runtime-cpudetect --extra-cflags=-I/home/peter/cc64/include --extra-ldflags=-L/home/peter/cc64/lib --pkg-config=pkg-config --disable-w32threads --enable-zlib
    libavutil 52. 17.103 / 52. 17.103
    libavcodec 54. 92.100 / 54. 92.100
    libavformat 54. 63.102 / 54. 63.102
    libavdevice 54. 3.103 / 54. 3.103
    libavfilter 3. 41.100 / 3. 41.100
    libswscale 2. 2.100 / 2. 2.100
    libswresample 0. 17.102 / 0. 17.102
    Input #0, matroska,webm, from 'C:\Users\M.J. Bennicelli\Videos\Dr No (1962).(Bond.50).Bluray.1080p.DTS-HD.x264.mkv':
    Metadata:
    title : James Bond 007: Dr. No (1962)
    creation_time : 2014-05-01 21:10:53
    Duration: 01:49:50.46, start: 0.000000, bitrate: 15782 kb/s
    Chapter #0.0: start 0.000000, end 170.670000
    Metadata:
    title : 00:00:00.000
    Chapter #0.1: start 170.670000, end 393.684000
    Metadata:
    title : 00:02:50.670
    Chapter #0.2: start 393.684000, end 581.914000
    Metadata:
    title : 00:06:33.684
    Chapter #0.3: start 581.914000, end 986.860000
    Metadata:
    title : 00:09:41.914
    Chapter #0.4: start 986.860000, end 1140.848000
    Metadata:
    title : 00:16:26.860
    Chapter #0.5: start 1140.848000, end 1326.491000
    Metadata:
    title : 00:19:00.848
    Chapter #0.6: start 1326.491000, end 1472.471000
    Metadata:
    title : 00:22:06.491
    Chapter #0.7: start 1472.471000, end 1603.602000
    Metadata:
    title : 00:24:32.471
    Chapter #0.8: start 1603.602000, end 1708.123000
    Metadata:
    title : 00:26:43.602
    Chapter #0.9: start 1708.123000, end 1882.255000
    Metadata:
    title : 00:28:28.123
    Chapter #0.10: start 1882.255000, end 2167.582000
    Metadata:
    title : 00:31:22.255
    Chapter #0.11: start 2167.582000, end 2259.257000
    Metadata:
    title : 00:36:07.582
    Chapter #0.12: start 2259.257000, end 2478.058000
    Metadata:
    title : 00:37:39.257
    Chapter #0.13: start 2478.058000, end 2678.217000
    Metadata:
    title : 00:41:18.058
    Chapter #0.14: start 2678.217000, end 2804.676000
    Metadata:
    title : 00:44:38.217
    Chapter #0.15: start 2804.676000, end 2898.896000
    Metadata:
    title : 00:46:44.676
    Chapter #0.16: start 2898.896000, end 3084.247000
    Metadata:
    title : 00:48:18.896
    Chapter #0.17: start 3084.247000, end 3328.575000
    Metadata:
    title : 00:51:24.247
    Chapter #0.18: start 3328.575000, end 3530.109000
    Metadata:
    title : 00:55:28.575
    Chapter #0.19: start 3530.109000, end 3715.920000
    Metadata:
    title : 00:58:50.109
    Chapter #0.20: start 3715.920000, end 4088.125000
    Metadata:
    title : 01:01:55.920
    Chapter #0.21: start 4088.125000, end 4359.855000
    Metadata:
    title : 01:08:08.125
    Chapter #0.22: start 4359.855000, end 4517.930000
    Metadata:
    title : 01:12:39.855
    Chapter #0.23: start 4517.930000, end 4684.304000
    Metadata:
    title : 01:15:17.930
    Chapter #0.24: start 4684.304000, end 4854.432000
    Metadata:
    title : 01:18:04.304
    Chapter #0.25: start 4854.432000, end 5188.600000
    Metadata:
    title : 01:20:54.432
    Chapter #0.26: start 5188.600000, end 5640.760000
    Metadata:
    title : 01:26:28.600
    Chapter #0.27: start 5640.760000, end 5943.270000
    Metadata:
    title : 01:34:00.760
    Chapter #0.28: start 5943.270000, end 6185.429000
    Metadata:
    title : 01:39:03.270
    Chapter #0.29: start 6185.429000, end 6319.021000
    Metadata:
    title : 01:43:05.429
    Chapter #0.30: start 6319.021000, end 6450.193000
    Metadata:
    title : 01:45:19.021
    Chapter #0.31: start 6450.193000, end 6590.208000
    Metadata:
    title : 01:47:30.193
    Chapter #0.32: start 6590.208000, end 6590.464000
    Metadata:
    title : 01:49:50.208
    Stream #0:0(eng): Video: h264 (High), yuv420p, 1920x1080, SAR 1:1 DAR 16:9, 23.98 fps, 23.98 tbr, 1k tbn, 47.95 tbc (default)
    Metadata:
    title : Dr.No.1962.(Bond.50).Bluray.1080p.DTS-HD.x264-Grym
    Stream #0:1(eng): Audio: dts (DTS), 48000 Hz, 5.1(side), fltp, 1536 kb/s (default)
    Metadata:
    title : Movie Audio Track: DTS 5.1 @ 1.5 Mbps
    Stream #0:2(eng): Audio: ac3, 48000 Hz, stereo, fltp, 224 kb/s
    Metadata:
    title : AC3 192 kbps 2.0 - Commentary
    Stream #0:3(eng): Subtitle: hdmv_pgs_subtitle
    Stream #0:4(eng): Subtitle: hdmv_pgs_subtitle
    At least one output file must be specified

    <MEZZMO>: Child process ended with code: 109, ExitCode=1


    ---> DB Level Info: 41, 100
    ---> Frame rate: 23.98
    ---> Aspect ratio: 16:9 PAR=1:1

  7. #7
    Join Date
    Nov 2007
    Location
    Melbourne, Australia
    Posts
    11,599

    Default

    Thanks for the information. It appears that your particular TV model does not handle DTS HD Master Audio (DTS-HD MA). We'll look at adding better detection and support for DTS-HD MA into Mezzmo. For the moment, you will need to pre-transcode these files to another format. Make sure you you click the 'Force full transcode of all channels' checkbox on the Pre-transcoding Formats dialog when pre-transcoding.

    Mezzmo Android: Install it on your tablet, smartphone, Android TV or Amazon Fire to browse and stream files from your Mezzmo library to all your devices. Full details at http://www.conceiva.com/products/mez...mo_android.asp
    Mezzmo for Kodi Add-on: Install it into Kodi to stream files from your Mezzmo library directly in Kodi. Full details at http://www.mezzmo.com/wiki/doku.php?...odi_user_guide
    Mezzmo for Roku App: Install it onto your Roku to stream files from your Mezzmo library. Full details at http://www.mezzmo.com/wiki/doku.php?...oku_user_guide
    Wiki: User Guides & Reference Manual at http://www.mezzmo.com/wiki
    Facebook: http://www.facebook.com/Mezzmo.DLNA.Server
    Twitter: https://twitter.com/conceiva_mezzmo
    Web: http://www.mezzmo.com

  8. #8

    Default

    When is your next update due which will incorporate this issue?

  9. #9
    Join Date
    Nov 2007
    Location
    Melbourne, Australia
    Posts
    11,599

    Default

    We are about to release Mezzmo v4.0 in the next week. After that, we will be able to start work on new features such as better DTS detection.

    Mezzmo Android: Install it on your tablet, smartphone, Android TV or Amazon Fire to browse and stream files from your Mezzmo library to all your devices. Full details at http://www.conceiva.com/products/mez...mo_android.asp
    Mezzmo for Kodi Add-on: Install it into Kodi to stream files from your Mezzmo library directly in Kodi. Full details at http://www.mezzmo.com/wiki/doku.php?...odi_user_guide
    Mezzmo for Roku App: Install it onto your Roku to stream files from your Mezzmo library. Full details at http://www.mezzmo.com/wiki/doku.php?...oku_user_guide
    Wiki: User Guides & Reference Manual at http://www.mezzmo.com/wiki
    Facebook: http://www.facebook.com/Mezzmo.DLNA.Server
    Twitter: https://twitter.com/conceiva_mezzmo
    Web: http://www.mezzmo.com

  10. #10

    Default

    I will look for the new release. As for the DTS detection, you may want to look at the Serviio detection. I switched over to Mezzmo from Serviio. Serviio does detect the DTS issues.

Similar Threads

  1. Problems with selecting/listing movies on Panasonic VT60
    By ricksastro in forum Mezzmo Questions and Support
    Replies: 3
    Last Post: 02-28-2014, 04:15 PM
  2. Panasonic Viera G20 videos stuttering & not recognised
    By ChrisOfTheOT in forum Mezzmo Questions and Support
    Replies: 34
    Last Post: 09-09-2013, 06:38 PM
  3. Panasonic Viera (2011 models), DTS ?
    By JimK in forum Mezzmo Questions and Support
    Replies: 3
    Last Post: 02-05-2013, 11:39 AM
  4. Panasonic Viera (2011) Audio problems with Version 2.5
    By rwadowsky in forum Mezzmo Questions and Support
    Replies: 3
    Last Post: 01-18-2012, 09:46 AM
  5. DTS-HD audio support
    By Josip in forum Mezzmo Questions and Support
    Replies: 10
    Last Post: 11-23-2011, 12:30 PM

Tags for this Thread

Bookmarks

Posting Permissions

  • You may not post new threads
  • You may not post replies
  • You may not post attachments
  • You may not edit your posts
  •