Page 1 of 2 12 LastLast
Results 1 to 10 of 11

Thread: mezzmo not working on xbox 360

  1. #1
    Join Date
    Apr 2014
    Posts
    4

    Default mezzmo not working on xbox 360

    Hi,
    i want to stream from mezzmo to xbox 360 using wifi,
    and mezzmo can't play any videos I have except a wmv video
    status code on xbox : 51-C00DF236
    what should I do to make mp4 and avi videos to play ?

    many thanks
    Last edited by boxtone; 04-27-2014 at 09:33 AM.

  2. #2
    Join Date
    Nov 2007
    Location
    Melbourne, Australia
    Posts
    11,616

    Default

    Make sure the device profile is set to 'Microsoft Xbox 360' in the Media Devices dialog in Mezzmo and try streaming again. If no success, right-click on the video in Mezzmo and click 'Get FFmpeg Information'. Post that information here or email it to us at support [at] conceiva [dot] com.

    Mezzmo Android: Install it on your tablet, smartphone, Android TV or Amazon Fire to browse and stream files from your Mezzmo library to all your devices. Full details at http://www.conceiva.com/products/mez...mo_android.asp
    Mezzmo for Kodi Add-on: Install it into Kodi to stream files from your Mezzmo library directly in Kodi. Full details at http://www.mezzmo.com/wiki/doku.php?...odi_user_guide
    Mezzmo for Roku App: Install it onto your Roku to stream files from your Mezzmo library. Full details at http://www.mezzmo.com/wiki/doku.php?...oku_user_guide
    Wiki: User Guides & Reference Manual at http://www.mezzmo.com/wiki
    Facebook: http://www.facebook.com/Mezzmo.DLNA.Server
    Twitter: https://twitter.com/conceiva_mezzmo
    Web: http://www.mezzmo.com

  3. #3
    Join Date
    Apr 2014
    Posts
    4

    Default

    I have done it before, and it is still not working,


    ffmpeg version N-50460-g393dcbf Copyright (c) 2000-2013 the FFmpeg developers
    built on Jun 27 2013 17:20:20 with gcc 4.6.2 (GCC)
    configuration: --enable-memalign-hack --arch=x86_64 --target-os=mingw32 --cross-prefix=x86_64-w64-mingw32- --enable-static --disable-shared --enable-zlib --disable-postproc --prefix=/home/peter/ffmpeg/build/gpl64 --enable-libmp3lame --enable-libx264 --enable-gpl --extra-libs='-lx264 -lpthread' --enable-runtime-cpudetect --extra-cflags=-I/home/peter/cc64/include --extra-ldflags=-L/home/peter/cc64/lib --pkg-config=pkg-config --disable-w32threads --enable-zlib
    libavutil 52. 17.103 / 52. 17.103
    libavcodec 54. 92.100 / 54. 92.100
    libavformat 54. 63.102 / 54. 63.102
    libavdevice 54. 3.103 / 54. 3.103
    libavfilter 3. 41.100 / 3. 41.100
    libswscale 2. 2.100 / 2. 2.100
    libswresample 0. 17.102 / 0. 17.102
    Input #0, mov,mp4,m4a,3gp,3g2,mj2, from 'F:\Documents\Videos\0002.mp4':
    Metadata:
    major_brand : isom
    minor_version : 512
    compatible_brands: mp41
    creation_time : 1970-01-01 00:00:00
    Duration: 00:06:33.07, start: 0.000000, bitrate: 2102 kb/s
    Stream #0:0(eng): Video: mpeg4 (Simple Profile) (mp4v / 0x7634706D), yuv420p, 1280x720 [SAR 1:1 DAR 16:9], 2001 kb/s, 30 fps, 30 tbr, 30 tbn, 30 tbc
    Metadata:
    creation_time : 1970-01-01 00:00:00
    handler_name : VideoHandler
    Stream #0:1(eng): Audio: aac (mp4a / 0x6134706D), 44100 Hz, stereo, fltp, 96 kb/s
    Metadata:
    creation_time : 1970-01-01 00:00:00
    handler_name : SoundHandler
    At least one output file must be specified

    <MEZZMO>: Child process ended with code: 109, ExitCode=1


    ---> DB Level Info: 1, 0
    ---> Frame rate: 30,00
    ---> Aspect ratio: 16:9 PAR=1:1

    and i got another problem , my xbox 360 is hard to see mezzmo, rarely it sees , but more often not, i did not change anything.
    I reinstalled mezzmo , and the problem is still there.

    is there any way to get out from this?
    Last edited by boxtone; 04-28-2014 at 06:28 PM.

  4. #4
    Join Date
    Nov 2007
    Location
    Melbourne, Australia
    Posts
    11,616

    Default

    Mezzmo is streaming this file directly to your Xbox 360. If your Xbox 360 cannot play it, then there may be something wrong in the encoding. Try pre-transcoding the file and it may fix the issues. To pre-transcode a file, see this FAQ - http://forum.conceiva.com/showthread...nscoding-Files.

    If Mezzmo is not always listing on your Xbox 360, then your wireless connection may not be stable between your Xbox 360 and PC. An unstable wireless signal could also explain why your videos are not playing well. See this FAQ to improve your home network connection and video playback - http://forum.conceiva.com/showthread...reaming-videos

    Mezzmo Android: Install it on your tablet, smartphone, Android TV or Amazon Fire to browse and stream files from your Mezzmo library to all your devices. Full details at http://www.conceiva.com/products/mez...mo_android.asp
    Mezzmo for Kodi Add-on: Install it into Kodi to stream files from your Mezzmo library directly in Kodi. Full details at http://www.mezzmo.com/wiki/doku.php?...odi_user_guide
    Mezzmo for Roku App: Install it onto your Roku to stream files from your Mezzmo library. Full details at http://www.mezzmo.com/wiki/doku.php?...oku_user_guide
    Wiki: User Guides & Reference Manual at http://www.mezzmo.com/wiki
    Facebook: http://www.facebook.com/Mezzmo.DLNA.Server
    Twitter: https://twitter.com/conceiva_mezzmo
    Web: http://www.mezzmo.com

  5. #5
    Join Date
    Apr 2014
    Posts
    4

    Default

    is there any way to play on my xbox 360 without pre transcoding the file? because i don't want to fullfill my hard disk . but i did pre transcoded a file just for test, but the result is same , the video is unplayable. status code 69-C00D36C4.

    I always get 3 to 4 bar signal which is very good, and sorry to say this but the other streaming softwares I have tried ,that always showing up on my xbox 360 .
    what's wrong with mezzmo on my PC?

  6. #6
    Join Date
    Nov 2007
    Location
    Melbourne, Australia
    Posts
    11,616

    Default

    It's best we see a set of logs. Turn on logging in Mezzmo (see http://forum.conceiva.com/showthread...nostic-logging) and restart your Mezzmo server. Connect to Mezzmo from your Xbox and try streaming a few videos. When they fail, stop your Mezzmo server and exit Mezzmo. Zip up all the logs and email them to us at support [at] conceiva [dot] com.

    Mezzmo Android: Install it on your tablet, smartphone, Android TV or Amazon Fire to browse and stream files from your Mezzmo library to all your devices. Full details at http://www.conceiva.com/products/mez...mo_android.asp
    Mezzmo for Kodi Add-on: Install it into Kodi to stream files from your Mezzmo library directly in Kodi. Full details at http://www.mezzmo.com/wiki/doku.php?...odi_user_guide
    Mezzmo for Roku App: Install it onto your Roku to stream files from your Mezzmo library. Full details at http://www.mezzmo.com/wiki/doku.php?...oku_user_guide
    Wiki: User Guides & Reference Manual at http://www.mezzmo.com/wiki
    Facebook: http://www.facebook.com/Mezzmo.DLNA.Server
    Twitter: https://twitter.com/conceiva_mezzmo
    Web: http://www.mezzmo.com

  7. #7
    Join Date
    Apr 2014
    Posts
    4

    Default

    okay, I did send the logs

  8. #8
    Join Date
    Nov 2007
    Location
    Melbourne, Australia
    Posts
    11,616

    Default

    Thanks - got your logs. We'll analyze them shortly and respond back via email.

    Mezzmo Android: Install it on your tablet, smartphone, Android TV or Amazon Fire to browse and stream files from your Mezzmo library to all your devices. Full details at http://www.conceiva.com/products/mez...mo_android.asp
    Mezzmo for Kodi Add-on: Install it into Kodi to stream files from your Mezzmo library directly in Kodi. Full details at http://www.mezzmo.com/wiki/doku.php?...odi_user_guide
    Mezzmo for Roku App: Install it onto your Roku to stream files from your Mezzmo library. Full details at http://www.mezzmo.com/wiki/doku.php?...oku_user_guide
    Wiki: User Guides & Reference Manual at http://www.mezzmo.com/wiki
    Facebook: http://www.facebook.com/Mezzmo.DLNA.Server
    Twitter: https://twitter.com/conceiva_mezzmo
    Web: http://www.mezzmo.com

  9. #9
    Join Date
    Jun 2014
    Posts
    2

    Default

    I'm having the same issue with .mkv files

    ffmpeg version N-59793-g7a8318f Copyright (c) 2000-2014 the FFmpeg developers
    built on Jan 16 2014 16:51:32 with gcc 4.8.2 (GCC)
    configuration: --enable-memalign-hack --arch=x86_64 --target-os=mingw32 --cross-prefix=x86_64-w64-mingw32- --enable-static --disable-shared --enable-zlib --disable-postproc --prefix=/home/peter/ffmpeg/build/gpl64 --enable-libmp3lame --enable-libx264 --enable-gpl --extra-libs='-lx264 -lpthread' --enable-runtime-cpudetect --extra-cflags=-I/home/peter/cc32/include --extra-ldflags=-L/home/peter/cc64/lib --pkg-config=pkg-config --disable-w32threads --enable-libvpx --enable-libvorbis
    libavutil 52. 62.100 / 52. 62.100
    libavcodec 55. 48.101 / 55. 48.101
    libavformat 55. 23.103 / 55. 23.103
    libavdevice 55. 5.102 / 55. 5.102
    libavfilter 4. 1.100 / 4. 1.100
    libswscale 2. 5.101 / 2. 5.101
    libswresample 0. 17.104 / 0. 17.104
    Input #0, matroska,webm, from 'I:\Movies\Survivor\Survivor.mkv':
    Metadata:
    encoder : libebml v1.3.0 + libmatroska v1.4.1
    creation_time : 2014-05-21 01:20:52
    Duration: 02:01:16.28, start: 0.000000, bitrate: 10318 kb/s
    Chapter #0.0: start 0.000000, end 223.181000
    Metadata:
    title : 00:00:00.000
    Chapter #0.1: start 223.181000, end 759.550000
    Metadata:
    title : 00:03:43.181
    Chapter #0.2: start 759.550000, end 1202.493000
    Metadata:
    title : 00:12:39.550
    Chapter #0.3: start 1202.493000, end 1599.765000
    Metadata:
    title : 00:20:02.493
    Chapter #0.4: start 1599.765000, end 1988.236000
    Metadata:
    title : 00:26:39.765
    Chapter #0.5: start 1988.236000, end 2377.208000
    Metadata:
    title : 00:33:08.236
    Chapter #0.6: start 2377.208000, end 2702.825000
    Metadata:
    title : 00:39:37.208
    Chapter #0.7: start 2702.825000, end 3011.175000
    Metadata:
    title : 00:45:02.825
    Chapter #0.8: start 3011.175000, end 3268.182000
    Metadata:
    title : 00:50:11.175
    Chapter #0.9: start 3268.182000, end 3680.302000
    Metadata:
    title : 00:54:28.182
    Chapter #0.10: start 3680.302000, end 4124.537000
    Metadata:
    title : 01:01:20.302
    Chapter #0.11: start 4124.537000, end 4554.967000
    Metadata:
    title : 01:08:44.537
    Chapter #0.12: start 4554.967000, end 4848.635000
    Metadata:
    title : 01:15:54.967
    Chapter #0.13: start 4848.635000, end 5172.459000
    Metadata:
    title : 01:20:48.635
    Chapter #0.14: start 5172.459000, end 5478.598000
    Metadata:
    title : 01:26:12.459
    Chapter #0.15: start 5478.598000, end 5926.921000
    Metadata:
    title : 01:31:18.598
    Chapter #0.16: start 5926.921000, end 6141.218000
    Metadata:
    title : 01:38:46.921
    Chapter #0.17: start 6141.218000, end 6720.005000
    Metadata:
    title : 01:42:21.218
    Chapter #0.18: start 6720.005000, end 7006.124000
    Metadata:
    title : 01:52:00.005
    Chapter #0.19: start 7006.124000, end 7276.278000
    Metadata:
    title : 01:56:46.124
    Stream #0:0(eng): Video: h264 (High), yuv420p, 1920x800, SAR 1:1 DAR 12:5, 23.98 fps, 23.98 tbr, 1k tbn, 47.95 tbc (default)
    Stream #0:1(eng): Audio: dts (DTS), 48000 Hz, 5.1(side), fltp, 1536 kb/s (default)
    Stream #0:2(eng): Subtitle: subrip
    Metadata:
    title : English SDH
    Stream #0:3(eng): Subtitle: subrip
    Metadata:
    title : English
    At least one output file must be specified

    <MEZZMO>: Child process ended with code: 109, ExitCode=1


    ---> DB Level Info: 41, 100
    ---> Frame rate: 23.98
    ---> Aspect ratio: 12:5 PAR=1:1
    ---> Duration: 02:01:16

  10. #10
    Join Date
    Dec 2012
    Location
    Sierra Vista, Arizona
    Posts
    51

    Default

    My 360 did the exact same thing. Codecs support are by Microsoft are .wmv and that's about it. Mezzmo will have to transcode everything to stream to XBOX360. If your worried about hard drive space then lower the amount of storage you allow mezzmo to use. If you have a decent computer then I wouldn't worry about the minute or so it takes to transcode a video in order to watch it.

Similar Threads

  1. Xbox 360 using System Music Player not working
    By starfire in forum Mezzmo Questions and Support
    Replies: 3
    Last Post: 04-12-2013, 09:15 AM
  2. XBOX 360 will not see Mezzmo
    By Taubin in forum Mezzmo Questions and Support
    Replies: 2
    Last Post: 06-25-2012, 09:21 AM
  3. Mezzmo and Xbox 360
    By JohnCoch in forum Mezzmo Questions and Support
    Replies: 5
    Last Post: 09-30-2011, 02:15 PM
  4. Xbox 360 with Mezzmo 2.1.13.0
    By mathieuy in forum Mezzmo Questions and Support
    Replies: 1
    Last Post: 01-24-2011, 12:47 PM
  5. Mezzmo and XBOX 360 problems
    By Chuchelo in forum Mezzmo Questions and Support
    Replies: 1
    Last Post: 12-31-2010, 06:26 AM

Tags for this Thread

Bookmarks

Posting Permissions

  • You may not post new threads
  • You may not post replies
  • You may not post attachments
  • You may not edit your posts
  •