Results 1 to 5 of 5

Thread: Awesome product.....but need help with file.

  1. #1

    Default Awesome product.....but need help with file.

    First things first, mezzmo is my solution to date and took the plunge and purchased earlier today.

    Setup:

    Samsung Plasma: PN58-C8000
    Acer Easystore AH341 WHS

    Currently got it setup and I have to say that I am very impressed so far, every file that I can think of, and it played it no problem on my sammy plasma with Arc feature on the televison.

    But one file studders to date:

    FFMPG info:
    FFmpeg version SVN-r24894, Copyright (c) 2000-2010 the FFmpeg developers
    built on Aug 24 2010 15:03:07 with gcc 4.4.0
    configuration: --enable-static --disable-shared --enable-memalign-hack --enable-libmp3lame --extra-cflags=-I/c/msys/local/include --extra-ldflags=-L/c/msys/local/lib --enable-zlib --enable-w32threads --extra-cflags=-fno-common --enable-gpl --enable-libx264 --disable-ffplay --disable-ffprobe --disable-ffserver --enable-runtime-cpudetect --extra-cflags=-U__STRICT_ANSI__
    libavutil 50.24. 0 / 50.24. 0
    libavcore 0. 6. 0 / 0. 6. 0
    libavcodec 52.86. 1 / 52.86. 1
    libavformat 52.78. 3 / 52.78. 3
    libavdevice 52. 2. 1 / 52. 2. 1
    libavfilter 1.37. 0 / 1.37. 0
    libswscale 0.11. 0 / 0.11. 0
    [avi @ 0003e840] non-interleaved AVI
    [mpeg4 @ 0003fb60] Invalid and inefficient vfw-avi packed B frames detected
    Input #0, avi, from 'D:\shares\Videos\AVI\Robin Hood (2010)\Robin Hood 2010.avi':
    Duration: 02:29:27.76, start: 0.000000, bitrate: 2229 kb/s
    Stream #0.0: Video: mpeg4, yuv420p, 720x304 [PAR 1:1 DAR 45:19], 25 tbr, 25 tbn, 25 tbc
    Stream #0.1: Audio: ac3, 48000 Hz, 5.1, s16, 384 kb/s
    At least one output file must be specified

  2. #2
    Join Date
    Nov 2007
    Location
    Melbourne, Australia
    Posts
    11,616

    Default

    Can you please send a message to support (at) conceiva (dot) com so that I could send you a patched version and an updated device profile to try? You're using the "Samsung C" device profile for your TV, right?

    Mezzmo Android: Install it on your tablet, smartphone, Android TV or Amazon Fire to browse and stream files from your Mezzmo library to all your devices. Full details at http://www.conceiva.com/products/mez...mo_android.asp
    Mezzmo for Kodi Add-on: Install it into Kodi to stream files from your Mezzmo library directly in Kodi. Full details at http://www.mezzmo.com/wiki/doku.php?...odi_user_guide
    Mezzmo for Roku App: Install it onto your Roku to stream files from your Mezzmo library. Full details at http://www.mezzmo.com/wiki/doku.php?...oku_user_guide
    Wiki: User Guides & Reference Manual at http://www.mezzmo.com/wiki
    Facebook: http://www.facebook.com/Mezzmo.DLNA.Server
    Twitter: https://twitter.com/conceiva_mezzmo
    Web: http://www.mezzmo.com

  3. #3

    Default

    Email sent

  4. #4

    Default

    Still having the same problems with certain files.

    I have the right profile and even have tried this with a wired connection and a wireless connection still have the same problem.

    FFmpeg version SVN-r24894, Copyright (c) 2000-2010 the FFmpeg developers
    built on Aug 24 2010 15:03:07 with gcc 4.4.0
    configuration: --enable-static --disable-shared --enable-memalign-hack --enable-libmp3lame --extra-cflags=-I/c/msys/local/include --extra-ldflags=-L/c/msys/local/lib --enable-zlib --enable-w32threads --extra-cflags=-fno-common --enable-gpl --enable-libx264 --disable-ffplay --disable-ffprobe --disable-ffserver --enable-runtime-cpudetect --extra-cflags=-U__STRICT_ANSI__
    libavutil 50.24. 0 / 50.24. 0
    libavcore 0. 6. 0 / 0. 6. 0
    libavcodec 52.86. 1 / 52.86. 1
    libavformat 52.78. 3 / 52.78. 3
    libavdevice 52. 2. 1 / 52. 2. 1
    libavfilter 1.37. 0 / 1.37. 0
    libswscale 0.11. 0 / 0.11. 0
    [avi @ 0003e840] non-interleaved AVI

    Seems stream 0 codec frame rate differs from container frame rate: 23.98 (65535/2733) -> 23.98 (10000000/417083)
    Input #0, avi, from 'D:\shares\Videos\AVI\Casablanca (1942)\Casablanca (1942).avi':
    Duration: 01:42:35.85, start: 0.000000, bitrate: 955 kb/s
    Stream #0.0: Video: mpeg4, yuv420p, 512x384 [PAR 1:1 DAR 4:3], 23.98 tbr, 23.98 tbn, 23.98 tbc
    Stream #0.1: Audio: mp3, 48000 Hz, 1 channels, s16, 66 kb/s
    Metadata:
    strn : English
    At least one output file must be specified


    Here is another or video information

    FFmpeg version SVN-r24894, Copyright (c) 2000-2010 the FFmpeg developers
    built on Aug 24 2010 15:03:07 with gcc 4.4.0
    configuration: --enable-static --disable-shared --enable-memalign-hack --enable-libmp3lame --extra-cflags=-I/c/msys/local/include --extra-ldflags=-L/c/msys/local/lib --enable-zlib --enable-w32threads --extra-cflags=-fno-common --enable-gpl --enable-libx264 --disable-ffplay --disable-ffprobe --disable-ffserver --enable-runtime-cpudetect --extra-cflags=-U__STRICT_ANSI__
    libavutil 50.24. 0 / 50.24. 0
    libavcore 0. 6. 0 / 0. 6. 0
    libavcodec 52.86. 1 / 52.86. 1
    libavformat 52.78. 3 / 52.78. 3
    libavdevice 52. 2. 1 / 52. 2. 1
    libavfilter 1.37. 0 / 1.37. 0
    libswscale 0.11. 0 / 0.11. 0
    [avi @ 0003e840] non-interleaved AVI
    [mpeg4 @ 0003fad0] Invalid and inefficient vfw-avi packed B frames detected
    Input #0, avi, from 'D:\shares\Videos\AVI\Robin Hood (2010)\Robin Hood 2010.avi':
    Duration: 02:29:27.76, start: 0.000000, bitrate: 2229 kb/s
    Stream #0.0: Video: mpeg4, yuv420p, 720x304 [PAR 1:1 DAR 45:19], 25 tbr, 25 tbn, 25 tbc
    Stream #0.1: Audio: ac3, 48000 Hz, 5.1, s16, 384 kb/s
    At least one output file must be specified

  5. #5
    Join Date
    Nov 2007
    Location
    Melbourne, Australia
    Posts
    11,616

    Default

    Can you please turn on logging (see this thread: http://forum.conceiva.com/showthread...nostic-logging) then try to play one of those files and once it fails, please stop the server and send the logs to support e-mail for further investigation?

    Mezzmo Android: Install it on your tablet, smartphone, Android TV or Amazon Fire to browse and stream files from your Mezzmo library to all your devices. Full details at http://www.conceiva.com/products/mez...mo_android.asp
    Mezzmo for Kodi Add-on: Install it into Kodi to stream files from your Mezzmo library directly in Kodi. Full details at http://www.mezzmo.com/wiki/doku.php?...odi_user_guide
    Mezzmo for Roku App: Install it onto your Roku to stream files from your Mezzmo library. Full details at http://www.mezzmo.com/wiki/doku.php?...oku_user_guide
    Wiki: User Guides & Reference Manual at http://www.mezzmo.com/wiki
    Facebook: http://www.facebook.com/Mezzmo.DLNA.Server
    Twitter: https://twitter.com/conceiva_mezzmo
    Web: http://www.mezzmo.com

Tags for this Thread

Bookmarks

Posting Permissions

  • You may not post new threads
  • You may not post replies
  • You may not post attachments
  • You may not edit your posts
  •