Results 1 to 10 of 11

Thread: PS3 Playback Issues

Hybrid View

Previous Post Previous Post   Next Post Next Post
  1. #1

    Default PS3 Playback Issues

    Hi, i'm using the latest v4, but I had this issue before. Think I figured out a workaround that worked in v3, but doesn't seem to work in v4. Don't remember what I tried.

    I do have a general question about the PS3 profiles, whats the difference between PS3 and PS3 (compatible)?

    My main issue, is I have a bunch of MKV files which the PS3 doesn't support. My server is not fast enough to transcode them.

    The video and audio codecs inside the MKV container the PS3 does support. So if I re-muxed them to a MP4 container they would play fine.

    Is there anyway to get Mezzmo to see my MKV files and serve them like there in a Mp4 container for the ps3?

  2. #2
    Join Date
    Nov 2007
    Location
    Melbourne, Australia
    Posts
    11,648

    Default

    Please post the FFmpeg information for the videos. Right-click on the video in Mezzmo and click 'Get FFmpeg Information'.

    Mezzmo Android: Install it on your tablet, smartphone, Android TV or Amazon Fire to browse and stream files from your Mezzmo library to all your devices. Full details at http://www.conceiva.com/products/mez...mo_android.asp
    Mezzmo for Kodi Add-on: Install it into Kodi to stream files from your Mezzmo library directly in Kodi. Full details at http://www.mezzmo.com/wiki/doku.php?...odi_user_guide
    Mezzmo for Roku App: Install it onto your Roku to stream files from your Mezzmo library. Full details at http://www.mezzmo.com/wiki/doku.php?...oku_user_guide
    Wiki: User Guides & Reference Manual at http://www.mezzmo.com/wiki
    Facebook: http://www.facebook.com/Mezzmo.DLNA.Server
    Twitter: https://twitter.com/conceiva_mezzmo
    Web: http://www.mezzmo.com

  3. #3

    Default

    ffmpeg version N-59793-g7a8318f Copyright (c) 2000-2014 the FFmpeg developers
    nput #0, matroska,webm,video.mkv':
    Metadata:
    encoder : libebml v1.3.0 + libmatroska v1.4.1
    Duration: 00:29:52.81, start: 0.000000, bitrate: 5200 kb/s
    Stream #0:0(eng): Audio: aac, 48000 Hz, stereo, fltp (default)
    Stream #0:1(eng): Video: h264 (High), yuv420p(tv, bt709), 1920x1080 [SAR 1:1 DAR 16:9], 23.98 fps, 23.98 tbr, 1k tbn, 2k tbc (default)

    The other files are basically the same.

    If I manually re-mux the file into a MP4 container the PS3 plays them perfectly.

    Skipping over another question are we? what is the difference between PS3 and PS3 (Compatible)?

    Can't seem to find it explained anywhere.

  4. #4
    Join Date
    Nov 2007
    Location
    Melbourne, Australia
    Posts
    11,648

    Default

    There is not too much difference between the two device profiles and we can probably remove the "PS3 (Compatible)" profile. We recommend you use the "Sony PlayStation 3".

    Mezzmo should be transcoding your MKV on-the-fly to MPEG-TS with the h264 and AAC being re-muxed into the new MPEG-TS container.

    Mezzmo Android: Install it on your tablet, smartphone, Android TV or Amazon Fire to browse and stream files from your Mezzmo library to all your devices. Full details at http://www.conceiva.com/products/mez...mo_android.asp
    Mezzmo for Kodi Add-on: Install it into Kodi to stream files from your Mezzmo library directly in Kodi. Full details at http://www.mezzmo.com/wiki/doku.php?...odi_user_guide
    Mezzmo for Roku App: Install it onto your Roku to stream files from your Mezzmo library. Full details at http://www.mezzmo.com/wiki/doku.php?...oku_user_guide
    Wiki: User Guides & Reference Manual at http://www.mezzmo.com/wiki
    Facebook: http://www.facebook.com/Mezzmo.DLNA.Server
    Twitter: https://twitter.com/conceiva_mezzmo
    Web: http://www.mezzmo.com

  5. #5

    Default

    Same issues here but I changed to Playstation 3 (Compatible) and the issues stopped..

  6. #6

    Default

    That's what V3 was doing, transcoding on the fly.

    V4 doesn't seem to be. Maybe I had it set at PS3 (Compatible).

    Will have to test that later, and report back.

    That's why I was wondering what the difference was.

Similar Threads

  1. Sony PS3 streaming issues with v2.6.4.0
    By FreeRyde in forum Mezzmo Questions and Support
    Replies: 6
    Last Post: 07-09-2012, 10:21 AM
  2. playback issues
    By Dissident in forum Mezzmo Questions and Support
    Replies: 4
    Last Post: 12-20-2011, 05:39 PM
  3. issues with mezzmo and ps3
    By ajpircio in forum Mezzmo Questions and Support
    Replies: 1
    Last Post: 09-02-2011, 04:20 PM
  4. Various playback issues on two different players
    By kaotik78 in forum Mezzmo Questions and Support
    Replies: 3
    Last Post: 04-05-2011, 10:07 AM
  5. PS3 issues after firmware 2.70
    By Silvos in forum Mezzmo Questions and Support
    Replies: 2
    Last Post: 12-15-2009, 06:34 PM

Tags for this Thread

Bookmarks

Posting Permissions

  • You may not post new threads
  • You may not post replies
  • You may not post attachments
  • You may not edit your posts
  •