Results 1 to 2 of 2

Thread: Play video file but lost audio after 30 sec

  1. #1

    Default Play video file but lost audio after 30 sec

    I have read some threads about playing files for 30 sec and then stop.
    My problem is similar with just one file, the difference is that i can play all the video but without sound after 30 sec, does not stop streaming.

    This is the file information:

    FFmpeg version SVN-r25157, Copyright (c) 2000-2010 the FFmpeg developers
    built on Sep 22 2010 12:40:23 with gcc 4.4.2
    configuration: --enable-memalign-hack --arch=x86 --target-os=mingw32 --cross-prefix=i686-mingw32- --enable-static --disable-shared --enable-zlib --disable-ffprobe --disable-ffplay --prefix=/media/windows-share/ffmpeg --extra-cflags=-U__STRICT_ANSI__ --enable-libmp3lame --enable-libx264 --enable-gpl --extra-libs='-lx264 -lpthread' --enable-runtime-cpudetect
    libavutil 50.27. 0 / 50.27. 0
    libavcore 0. 9. 0 / 0. 9. 0
    libavcodec 52.89. 0 / 52.89. 0
    libavformat 52.78. 5 / 52.78. 5
    libavdevice 52. 2. 2 / 52. 2. 2
    libavfilter 1.39. 0 / 1.39. 0
    libswscale 0.11. 0 / 0.11. 0

    Seems stream 0 codec frame rate differs from container frame rate: 23.98 (65535/2733) -> 23.98 (5000000/208541)
    Input #0, avi, from 'D:\Videos\Gladiator Edicion 10 Aniversario\Gladiator Ed 10 Aniversario Parte1.avi':
    Metadata:
    ISFT : VirtualDubMod 1.5.10.1 (build 2439/release)
    Duration: 01:18:37.98, start: 0.000000, bitrate: 2526 kb/s
    Stream #0.0: Video: mpeg4, yuv420p, 712x304 [PAR 1:1 DAR 89:38], 23.98 tbr, 23.98 tbn, 23.98 tbc
    Stream #0.1: Audio: ac3, 48000 Hz, 5.1, s16, 384 kb/s
    At least one output file must be specified


    ---> DB Level Info: 0


    I have 2.1.10 and D-Link DSM 320RD

    Thanks in advance

  2. #2
    Join Date
    Nov 2007
    Location
    Melbourne, Australia
    Posts
    11,646

    Default

    Looking at the device profile for the DSM-320, this file should pass through natively without transcoding. If that's the case, then it's possible that the audio track in this file is not properly decoded by the DLink. I've seen this happen before - a file plays fine on your PC, plays fine on other devices, but then you find a device that should play it, but just doesn't. Do you have any other device to test this file with?

    Or, if you can upload it somewhere for us to grab for testing here, that would also be great.

    Mezzmo Android: Install it on your tablet, smartphone, Android TV or Amazon Fire to browse and stream files from your Mezzmo library to all your devices. Full details at http://www.conceiva.com/products/mez...mo_android.asp
    Mezzmo for Kodi Add-on: Install it into Kodi to stream files from your Mezzmo library directly in Kodi. Full details at http://www.mezzmo.com/wiki/doku.php?...odi_user_guide
    Mezzmo for Roku App: Install it onto your Roku to stream files from your Mezzmo library. Full details at http://www.mezzmo.com/wiki/doku.php?...oku_user_guide
    Wiki: User Guides & Reference Manual at http://www.mezzmo.com/wiki
    Facebook: http://www.facebook.com/Mezzmo.DLNA.Server
    Twitter: https://twitter.com/conceiva_mezzmo
    Web: http://www.mezzmo.com

Tags for this Thread

Bookmarks

Posting Permissions

  • You may not post new threads
  • You may not post replies
  • You may not post attachments
  • You may not edit your posts
  •