Page 1 of 2 12 LastLast
Results 1 to 10 of 18

Thread: Transcoding of .ISO -> Chromecast not full screen?

  1. #1

    Default Transcoding of .ISO -> Chromecast not full screen?

    Hi there!

    Love Mezzmo and just picked up a Chromecast. I'm trying to cast my DVD .ISO images from my PC (running the latest build of Mezzmo) to the Chromecast. Through the GUI, I've been able to select the Chromecast profile and I can see it begin to transcode as expected. However, it's not filling up the entire screen:





    Using a 52" Sony Bravia XBR4. I've tried pre-transcoding and changing the aspect option (square pixels) in the GUI, but no matter what .ISO I throw at it, it doesn't expand to full screen.

    Thoughts?

  2. #2
    Join Date
    Nov 2007
    Location
    Melbourne, Australia
    Posts
    11,616

    Default

    I just streamed a few DVD ISOs to a Chromecast and they are all played full screen on the TV. Perhaps there is a screen size setting on your TV that you need to adjust. When the DVD ISO is streaming via your Chromecast, press the Options or Tools button your TV's remote control and see if you can adjust the screen, view or zoom mode for that particular HDMI port being used by your Chromecast dongle.

    Mezzmo Android: Install it on your tablet, smartphone, Android TV or Amazon Fire to browse and stream files from your Mezzmo library to all your devices. Full details at http://www.conceiva.com/products/mez...mo_android.asp
    Mezzmo for Kodi Add-on: Install it into Kodi to stream files from your Mezzmo library directly in Kodi. Full details at http://www.mezzmo.com/wiki/doku.php?...odi_user_guide
    Mezzmo for Roku App: Install it onto your Roku to stream files from your Mezzmo library. Full details at http://www.mezzmo.com/wiki/doku.php?...oku_user_guide
    Wiki: User Guides & Reference Manual at http://www.mezzmo.com/wiki
    Facebook: http://www.facebook.com/Mezzmo.DLNA.Server
    Twitter: https://twitter.com/conceiva_mezzmo
    Web: http://www.mezzmo.com

  3. #3

    Default

    Quote Originally Posted by Paul View Post
    I just streamed a few DVD ISOs to a Chromecast and they are all played full screen on the TV. Perhaps there is a screen size setting on your TV that you need to adjust. When the DVD ISO is streaming via your Chromecast, press the Options or Tools button your TV's remote control and see if you can adjust the screen, view or zoom mode for that particular HDMI port being used by your Chromecast dongle.
    I can certainly take a look. What's odd though is that the gray Mezzo screen with logo and loading screen is the full 1080p resolution. Perhaps there is a setting to expand the 480p DVD resolution for that particular port though. I'll look and get back to you.

    Thanks!

  4. #4

    Default

    As I mentioned earlier, the gray Mezzmo splash screen and loading screens for the .ISOs are in the correct aspect ratio and resolution (the TV's native interface shows 16:9 & 1080p). However as soon as the movie starts playing on the Chromecast (and transcoding on the PC running the Mezzmo server), the movie only displays in the middle of the screen as shown above. However, the native TV interface still shows 16:9 & 1080p when I press the display button on the remote.

    All HDMI inputs are set up the same way on the TV, one of them is connected to my HD DirectTV receiver and the other goes to a DVD Player (which upscales fine). The other odd thing is that if I transcode the video from .ISO to MP4 or MKV, the file plays correctly in the correct aspect ratio and full screen.

    Any further thoughts?
    Last edited by Artex; 08-06-2014 at 01:24 AM.

  5. #5
    Join Date
    Nov 2007
    Location
    Melbourne, Australia
    Posts
    11,616

    Default

    Thanks for the additional information. Right-click on one of the ISO videos in Mezzmo and click 'Get FFmpeg Information'. Post that information here or email it to us at support [at] conceiva [dot] com. Next, right-click again on the video and click Properties. On the Properties dialog, go to the Transcoding tab and select the transcoded file that you streamed to your Chromecast. Click the 'Get FFmpeg Information' button and also provide this information. Do this for the auto-transcoded file and the pre-transcoded file.

    Mezzmo Android: Install it on your tablet, smartphone, Android TV or Amazon Fire to browse and stream files from your Mezzmo library to all your devices. Full details at http://www.conceiva.com/products/mez...mo_android.asp
    Mezzmo for Kodi Add-on: Install it into Kodi to stream files from your Mezzmo library directly in Kodi. Full details at http://www.mezzmo.com/wiki/doku.php?...odi_user_guide
    Mezzmo for Roku App: Install it onto your Roku to stream files from your Mezzmo library. Full details at http://www.mezzmo.com/wiki/doku.php?...oku_user_guide
    Wiki: User Guides & Reference Manual at http://www.mezzmo.com/wiki
    Facebook: http://www.facebook.com/Mezzmo.DLNA.Server
    Twitter: https://twitter.com/conceiva_mezzmo
    Web: http://www.mezzmo.com

  6. #6

    Default

    Sure thing..

    Right-click on one of the ISO videos in Mezzmo and click 'Get FFmpeg Information'.

    ffmpeg version N-59793-g7a8318f Copyright (c) 2000-2014 the FFmpeg developers
    built on Jan 16 2014 16:51:32 with gcc 4.8.2 (GCC)
    configuration: --enable-memalign-hack --arch=x86_64 --target-os=mingw32 --cross-prefix=x86_64-w64-mingw32- --enable-static --disable-shared --enable-zlib --disable-postproc --prefix=/home/peter/ffmpeg/build/gpl64 --enable-libmp3lame --enable-libx264 --enable-gpl --extra-libs='-lx264 -lpthread' --enable-runtime-cpudetect --extra-cflags=-I/home/peter/cc32/include --extra-ldflags=-L/home/peter/cc64/lib --pkg-config=pkg-config --disable-w32threads --enable-libvpx --enable-libvorbis
    libavutil 52. 62.100 / 52. 62.100
    libavcodec 55. 48.101 / 55. 48.101
    libavformat 55. 23.103 / 55. 23.103
    libavdevice 55. 5.102 / 55. 5.102
    libavfilter 4. 1.100 / 4. 1.100
    libswscale 2. 5.101 / 2. 5.101
    libswresample 0. 17.104 / 0. 17.104
    Input #0, mpeg, from 'pipe:':
    Duration: N/A, start: 0.280633, bitrate: 640 kb/s
    Stream #0:0[0x1bf]: Data: dvd_nav_packet
    Stream #0:1[0x1e0]: Video: mpeg2video (Main), yuv420p(tv, smpte170m), 720x480 [SAR 8:9 DAR 4:3], max. 9800 kb/s, 29.83 fps, 59.94 tbr, 90k tbn, 59.94 tbc
    Stream #0:2[0x80]: Audio: ac3, 48000 Hz, 5.1(side), fltp, 448 kb/s
    Stream #0:3[0x81]: Audio: ac3, 48000 Hz, stereo, fltp, 192 kb/s
    Stream #0:4[0x21]: Subtitle: dvd_subtitle
    Stream #0:5[0x20]: Subtitle: dvd_subtitle
    At least one output file must be specified

    <MEZZMO>: Child process ended with code: 109, ExitCode=1


    ---> DB Level Info: 8, 4
    ---> Frame rate: 29.50
    ---> Aspect ratio: 4:3 PAR=8:9
    ---> Duration: 01:21:12 (multi-file total)
    ---> List: #dv;1:1;0:3504627712;4872|#archive:f:\!dvd\excisio n.iso|VIDEO_TS\vts_01_1.vob|#archive:f:\!dvd\excis ion.iso|VIDEO_TS\vts_01_2.vob|#archive:f:\!dvd\exc ision.iso|VIDEO_TS\vts_01_3.vob|#archive:f:\!dvd\e xcision.iso|VIDEO_TS\vts_01_4.vob




    Pre-transcoded file -> +matroska (+h264 +aac)

    ffmpeg version N-59793-g7a8318f Copyright (c) 2000-2014 the FFmpeg developers
    built on Jan 16 2014 16:51:32 with gcc 4.8.2 (GCC)
    configuration: --enable-memalign-hack --arch=x86_64 --target-os=mingw32 --cross-prefix=x86_64-w64-mingw32- --enable-static --disable-shared --enable-zlib --disable-postproc --prefix=/home/peter/ffmpeg/build/gpl64 --enable-libmp3lame --enable-libx264 --enable-gpl --extra-libs='-lx264 -lpthread' --enable-runtime-cpudetect --extra-cflags=-I/home/peter/cc32/include --extra-ldflags=-L/home/peter/cc64/lib --pkg-config=pkg-config --disable-w32threads --enable-libvpx --enable-libvorbis
    libavutil 52. 62.100 / 52. 62.100
    libavcodec 55. 48.101 / 55. 48.101
    libavformat 55. 23.103 / 55. 23.103
    libavdevice 55. 5.102 / 55. 5.102
    libavfilter 4. 1.100 / 4. 1.100
    libswscale 2. 5.101 / 2. 5.101
    libswresample 0. 17.104 / 0. 17.104
    Input #0, matroska,webm, from 'C:\Users\Artex\AppData\Local\Conceiva\Mezzmo\Tran scodingFiles\10C92FC9-B136-47cf-9B49-3A1B78A0B32A\Video\1719-fake_mp4-libx264-aac-sn.mzt':
    Metadata:
    ENCODER : Lavf55.23.103
    Duration: 01:21:20.78, start: 0.067000, bitrate: 602 kb/s
    Stream #0:0: Video: h264 (Main), yuv420p, 720x540 [SAR 1:1 DAR 4:3], 29.97 fps, 29.97 tbr, 1k tbn, 59.94 tbc (default)
    Stream #0:1: Audio: aac, 48000 Hz, 5.1, fltp (default)
    At least one output file must be specified

    <MEZZMO>: Child process ended with code: 109, ExitCode=1



    Pre-transcoded file -> +mov,mp4,m4a,3gp,3g2,mj2 (+h264 +aac)

    ffmpeg version N-59793-g7a8318f Copyright (c) 2000-2014 the FFmpeg developers
    built on Jan 16 2014 16:51:32 with gcc 4.8.2 (GCC)
    configuration: --enable-memalign-hack --arch=x86_64 --target-os=mingw32 --cross-prefix=x86_64-w64-mingw32- --enable-static --disable-shared --enable-zlib --disable-postproc --prefix=/home/peter/ffmpeg/build/gpl64 --enable-libmp3lame --enable-libx264 --enable-gpl --extra-libs='-lx264 -lpthread' --enable-runtime-cpudetect --extra-cflags=-I/home/peter/cc32/include --extra-ldflags=-L/home/peter/cc64/lib --pkg-config=pkg-config --disable-w32threads --enable-libvpx --enable-libvorbis
    libavutil 52. 62.100 / 52. 62.100
    libavcodec 55. 48.101 / 55. 48.101
    libavformat 55. 23.103 / 55. 23.103
    libavdevice 55. 5.102 / 55. 5.102
    libavfilter 4. 1.100 / 4. 1.100
    libswscale 2. 5.101 / 2. 5.101
    libswresample 0. 17.104 / 0. 17.104
    Input #0, mov,mp4,m4a,3gp,3g2,mj2, from 'C:\Users\Artex\AppData\Local\Conceiva\Mezzmo\Tran scodingFiles\10C92FC9-B136-47cf-9B49-3A1B78A0B32A\Video\1719-qt-libx264-aac-sn.mzt':
    Metadata:
    major_brand : isom
    minor_version : 512
    compatible_brands: isomiso2avc1mp41
    encoder : Lavf55.23.103
    Duration: 01:21:20.71, start: 0.000000, bitrate: 616 kb/s
    Stream #0:0(und): Video: h264 (Main) (avc1 / 0x31637661), yuv420p, 720x540 [SAR 1:1 DAR 4:3], 479 kb/s, 29.97 fps, 29.97 tbr, 30k tbn, 59.94 tbc (default)
    Metadata:
    handler_name : VideoHandler
    Stream #0:1(und): Audio: aac (mp4a / 0x6134706D), 48000 Hz, 5.1, fltp, 128 kb/s (default)
    Metadata:
    handler_name : SoundHandler
    At least one output file must be specified

    <MEZZMO>: Child process ended with code: 109, ExitCode=1



    Auto Encode -> +matroska (+vp8, +vorbis)


    C:\Program Files (x86)\Conceiva\Mezzmo\ffmpeg64\ffmpeg.exe -y -i pipe: -map 0:v:0 -map 0:a:0 -c:v:0 libvpx -b:v 1000000 -filter:v "yadif,scale=720:540,setsar=1:1" -threads 4 -cpu-used 4 -crf 10 -c:a:0 libvorbis -ar 48000 -sn -threads 0 -async 0 -f webm "C:\Users\Artex\AppData\Local\Conceiva\Mezzmo\Tran scodingFiles\10C92FC9-B136-47cf-9B49-3A1B78A0B32A\Video\1719-matroska_webm-libvpx-libvorbis-sn.mzt"

    ffmpeg version N-59793-g7a8318f Copyright (c) 2000-2014 the FFmpeg developers
    built on Jan 16 2014 16:51:32 with gcc 4.8.2 (GCC)
    configuration: --enable-memalign-hack --arch=x86_64 --target-os=mingw32 --cross-prefix=x86_64-w64-mingw32- --enable-static --disable-shared --enable-zlib --disable-postproc --prefix=/home/peter/ffmpeg/build/gpl64 --enable-libmp3lame --enable-libx264 --enable-gpl --extra-libs='-lx264 -lpthread' --enable-runtime-cpudetect --extra-cflags=-I/home/peter/cc32/include --extra-ldflags=-L/home/peter/cc64/lib --pkg-config=pkg-config --disable-w32threads --enable-libvpx --enable-libvorbis
    libavutil 52. 62.100 / 52. 62.100
    libavcodec 55. 48.101 / 55. 48.101
    libavformat 55. 23.103 / 55. 23.103
    libavdevice 55. 5.102 / 55. 5.102
    libavfilter 4. 1.100 / 4. 1.100
    libswscale 2. 5.101 / 2. 5.101
    libswresample 0. 17.104 / 0. 17.104
    Input #0, mpeg, from 'pipe:':
    Duration: N/A, start: 0.280633, bitrate: 640 kb/s
    Stream #0:0[0x1bf]: Data: dvd_nav_packet
    Stream #0:1[0x1e0]: Video: mpeg2video (Main), yuv420p(tv, smpte170m), 720x480 [SAR 8:9 DAR 4:3], max. 9800 kb/s, 29.17 fps, 59.94 tbr, 90k tbn, 59.94 tbc
    Stream #0:2[0x80]: Audio: ac3, 48000 Hz, 5.1(side), fltp, 448 kb/s
    Stream #0:3[0x81]: Audio: ac3, 48000 Hz, stereo, fltp, 192 kb/s
    [Parsed_setsar_2 @ 0000000002262800] num:den syntax is deprecated, please use num/den or named options instead
    [libvpx @ 000000000223f280] v1.3.0-617-gf83c12b
    Output #0, webm, to 'C:\Users\Artex\AppData\Local\Conceiva\Mezzmo\Tran scodingFiles\10C92FC9-B136-47cf-9B49-3A1B78A0B32A\Video\1719-matroska_webm-libvpx-libvorbis-sn.mzt':
    Metadata:
    encoder : Lavf55.23.103
    Stream #0:0: Video: vp8 (libvpx), yuv420p, 720x540 [SAR 1:1 DAR 4:3], q=-1--1, 1000 kb/s, 1k tbn, 29.97 tbc
    Stream #0:1: Audio: vorbis (libvorbis), 48000 Hz, 5.1(side), fltp
    Stream mapping:
    Stream #0:1 -> #0:0 (mpeg2video -> libvpx)
    Stream #0:2 -> #0:1 (ac3 -> libvorbis)
    frame= 58 fps=0.0 q=0.0 size= 17kB time=00:00:02.33 bitrate= 58.3kbits/s
    frame= 91 fps= 90 q=0.0 size= 164kB time=00:00:03.73 bitrate= 360.1kbits/s
    frame= 120 fps= 79 q=0.0 size= 395kB time=00:00:04.93 bitrate= 656.1kbits/s
    frame= 151 fps= 74 q=0.0 size= 540kB time=00:00:06.20 bitrate= 712.5kbits/s
    frame= 175 fps= 69 q=0.0 size= 737kB time=00:00:07.24 bitrate= 834.2kbits/s
    frame= 197 fps= 65 q=0.0 size= 1074kB time=00:00:08.14 bitrate=1081.1kbits/s
    frame= 220 fps= 62 q=0.0 size= 1275kB time=00:00:09.11 bitrate=1146.2kbits/s
    frame= 260 fps= 64 q=0.0 size= 1471kB time=00:00:10.77 bitrate=1118.1kbits/s
    frame= 308 fps= 68 q=0.0 size= 1588kB time=00:00:12.77 bitrate=1017.8kbits/s
    [mpeg @ 0000000001ff6440] New subtitle stream 0:4 at pos:7292942 and DTS:13.327s
    frame= 358 fps= 71 q=0.0 size= 1669kB time=00:00:14.84 bitrate= 920.6kbits/s
    frame= 406 fps= 73 q=0.0 size= 1766kB time=00:00:16.85 bitrate= 858.5kbits/s
    frame= 458 fps= 76 q=0.0 size= 1845kB time=00:00:19.01 bitrate= 794.9kbits/s
    frame= 499 fps= 76 q=0.0 size= 2053kB time=00:00:20.72 bitrate= 811.6kbits/s
    frame= 537 fps= 76 q=0.0 size= 2275kB time=00:00:22.32 bitrate= 835.0kbits/s
    frame= 570 fps= 75 q=0.0 size= 2549kB time=00:00:23.69 bitrate= 881.5kbits/s
    frame= 606 fps= 75 q=0.0 size= 2845kB time=00:00:25.19 bitrate= 925.2kbits/s
    frame= 643 fps= 75 q=0.0 size= 3129kB time=00:00:26.72 bitrate= 959.2kbits/s
    [mpeg @ 0000000001ff6440] New subtitle stream 0:5 at pos:14280718 and DTS:26.9072s
    frame= 682 fps= 75 q=0.0 size= 3407kB time=00:00:28.36 bitrate= 984.1kbits/s
    frame= 716 fps= 75 q=0.0 size= 3666kB time=00:00:29.79 bitrate=1007.9kbits/s
    frame= 753 fps= 75 q=0.0 size= 3889kB time=00:00:31.33 bitrate=1016.9kbits/s
    frame= 783 fps= 74 q=0.0 size= 4225kB time=00:00:32.56 bitrate=1062.9kbits/s
    frame= 815 fps= 73 q=0.0 size= 4498kB time=00:00:33.90 bitrate=1087.0kbits/s
    frame= 850 fps= 73 q=0.0 size= 4793kB time=00:00:35.36 bitrate=1110.2kbits/s
    frame= 884 fps= 73 q=0.0 size= 5068kB time=00:00:36.80 bitrate=1128.2kbits/s
    frame= 914 fps= 72 q=0.0 size= 5366kB time=00:00:38.03 bitrate=1155.6kbits/s
    frame= 943 fps= 72 q=0.0 size= 5660kB time=00:00:39.27 bitrate=1180.5kbits/s
    frame= 975 fps= 71 q=0.0 size= 5977kB time=00:00:40.57 bitrate=1206.6kbits/s
    frame= 1007 fps= 71 q=0.0 size= 6268kB time=00:00:41.90 bitrate=1225.3kbits/s
    frame= 1036 fps= 71 q=0.0 size= 6546kB time=00:00:43.14 bitrate=1242.9kbits/s
    frame= 1065 fps= 70 q=0.0 size= 6835kB time=00:00:44.34 bitrate=1262.7kbits/s
    frame= 1091 fps= 70 q=0.0 size= 7071kB time=00:00:45.41 bitrate=1275.6kbits/s
    frame= 1123 fps= 69 q=0.0 size= 7350kB
    Last edited by Artex; 08-06-2014 at 10:36 AM.

  7. #7
    Join Date
    Nov 2007
    Location
    Melbourne, Australia
    Posts
    11,616

    Default

    Thanks. Go back to the Transcoding tab on the Properties dialog and delete all the transcoded files for the DVD ISO video. Now go to the Media Devices dialog and edit your Chromecast device. On the Device Settings dialog, go to the Performance tab and change the "Adjust video aspect ratio with square pixels" checkbox (i.e. if checked, then change to unchecked, or if unchecked, change to checked). Save you changes and then try streaming the DVD ISO video again. If no success, then post the FFmpeg information for the transcoded file.

    Mezzmo Android: Install it on your tablet, smartphone, Android TV or Amazon Fire to browse and stream files from your Mezzmo library to all your devices. Full details at http://www.conceiva.com/products/mez...mo_android.asp
    Mezzmo for Kodi Add-on: Install it into Kodi to stream files from your Mezzmo library directly in Kodi. Full details at http://www.mezzmo.com/wiki/doku.php?...odi_user_guide
    Mezzmo for Roku App: Install it onto your Roku to stream files from your Mezzmo library. Full details at http://www.mezzmo.com/wiki/doku.php?...oku_user_guide
    Wiki: User Guides & Reference Manual at http://www.mezzmo.com/wiki
    Facebook: http://www.facebook.com/Mezzmo.DLNA.Server
    Twitter: https://twitter.com/conceiva_mezzmo
    Web: http://www.mezzmo.com

  8. #8

    Default

    Thanks for your quick response. The option was checked (forced to always transcode). I deleted the transcoded files, unchecked this option and let it auto-encode again. Same results - the picture is centered in the middle of the screen and now the image looks stretched vertically like the aspect ratio is off. Here's the ffmpeg output.

    C:\Program Files (x86)\Conceiva\Mezzmo\ffmpeg64\ffmpeg.exe -y -i pipe: -map 0:v:0 -map 0:a:0 -c:v:0 libvpx -b:v 1000000 -filter:v "yadif" -threads 4 -cpu-used 4 -crf 10 -c:a:0 libvorbis -ar 48000 -sn -threads 0 -async 0 -f webm "C:\Users\Artex\AppData\Local\Conceiva\Mezzmo\Tran scodingFiles\10C92FC9-B136-47cf-9B49-3A1B78A0B32A\Video\1719-matroska_webm-libvpx-libvorbis-sn.mzt"

    ffmpeg version N-59793-g7a8318f Copyright (c) 2000-2014 the FFmpeg developers
    built on Jan 16 2014 16:51:32 with gcc 4.8.2 (GCC)
    configuration: --enable-memalign-hack --arch=x86_64 --target-os=mingw32 --cross-prefix=x86_64-w64-mingw32- --enable-static --disable-shared --enable-zlib --disable-postproc --prefix=/home/peter/ffmpeg/build/gpl64 --enable-libmp3lame --enable-libx264 --enable-gpl --extra-libs='-lx264 -lpthread' --enable-runtime-cpudetect --extra-cflags=-I/home/peter/cc32/include --extra-ldflags=-L/home/peter/cc64/lib --pkg-config=pkg-config --disable-w32threads --enable-libvpx --enable-libvorbis
    libavutil 52. 62.100 / 52. 62.100
    libavcodec 55. 48.101 / 55. 48.101
    libavformat 55. 23.103 / 55. 23.103
    libavdevice 55. 5.102 / 55. 5.102
    libavfilter 4. 1.100 / 4. 1.100
    libswscale 2. 5.101 / 2. 5.101
    libswresample 0. 17.104 / 0. 17.104
    Input #0, mpeg, from 'pipe:':
    Duration: N/A, start: 0.280633, bitrate: 640 kb/s
    Stream #0:0[0x1bf]: Data: dvd_nav_packet
    Stream #0:1[0x1e0]: Video: mpeg2video (Main), yuv420p(tv, smpte170m), 720x480 [SAR 8:9 DAR 4:3], max. 9800 kb/s, 29.17 fps, 59.94 tbr, 90k tbn, 59.94 tbc
    Stream #0:2[0x80]: Audio: ac3, 48000 Hz, 5.1(side), fltp, 448 kb/s
    Stream #0:3[0x81]: Audio: ac3, 48000 Hz, stereo, fltp, 192 kb/s
    [libvpx @ 00000000022aac60] v1.3.0-617-gf83c12b
    Output #0, webm, to 'C:\Users\Artex\AppData\Local\Conceiva\Mezzmo\Tran scodingFiles\10C92FC9-B136-47cf-9B49-3A1B78A0B32A\Video\1719-matroska_webm-libvpx-libvorbis-sn.mzt':
    Metadata:
    encoder : Lavf55.23.103
    Stream #0:0: Video: vp8 (libvpx), yuv420p, 720x480 [SAR 8:9 DAR 4:3], q=-1--1, 1000 kb/s, 1k tbn, 29.97 tbc
    Stream #0:1: Audio: vorbis (libvorbis), 48000 Hz, 5.1(side), fltp
    Stream mapping:
    Stream #0:1 -> #0:0 (mpeg2video -> libvpx)
    Stream #0:2 -> #0:1 (ac3 -> libvorbis)
    frame= 68 fps=0.0 q=0.0 size= 23kB time=00:00:02.76 bitrate= 67.9kbits/s
    frame= 103 fps=102 q=0.0 size= 230kB time=00:00:04.23 bitrate= 444.4kbits/s
    frame= 137 fps= 91 q=0.0 size= 452kB time=00:00:05.63 bitrate= 657.3kbits/s
    frame= 168 fps= 83 q=0.0 size= 643kB time=00:00:06.94 bitrate= 758.5kbits/s
    frame= 192 fps= 76 q=0.0 size= 973kB time=00:00:07.94 bitrate=1003.9kbits/s
    frame= 219 fps= 72 q=0.0 size= 1237kB time=00:00:09.04 bitrate=1121.1kbits/s
    frame= 265 fps= 75 q=0.0 size= 1459kB time=00:00:10.97 bitrate=1088.7kbits/s
    [mpeg @ 00000000020d6440] New subtitle stream 0:4 at pos:7292942 and DTS:13.327s
    frame= 330 fps= 82 q=0.0 size= 1550kB time=00:00:13.71 bitrate= 925.9kbits/s
    frame= 386 fps= 85 q=0.0 size= 1670kB time=00:00:16.01 bitrate= 854.0kbits/s
    frame= 447 fps= 88 q=0.0 size= 1776kB time=00:00:18.55 bitrate= 784.2kbits/s
    frame= 497 fps= 89 q=0.0 size= 1987kB time=00:00:20.65 bitrate= 787.9kbits/s
    frame= 540 fps= 89 q=0.0 size= 2244kB time=00:00:22.45 bitrate= 818.7kbits/s
    frame= 581 fps= 88 q=0.0 size= 2542kB time=00:00:24.15 bitrate= 862.0kbits/s
    frame= 622 fps= 88 q=0.0 size= 2874kB time=00:00:25.85 bitrate= 910.6kbits/s
    [mpeg @ 00000000020d6440] New subtitle stream 0:5 at pos:14280718 and DTS:26.9072s
    frame= 666 fps= 88 q=0.0 size= 3158kB time=00:00:27.69 bitrate= 934.1kbits/s
    frame= 708 fps= 88 q=0.0 size= 3486kB time=00:00:29.46 bitrate= 969.3kbits/s
    frame= 752 fps= 88 q=0.0 size= 3753kB time=00:00:31.29 bitrate= 982.4kbits/s
    frame= 787 fps= 87 q=0.0 size= 4098kB time=00:00:32.76 bitrate=1024.6kbits/s
    frame= 822 fps= 86 q=0.0 size= 4442kB time=00:00:34.20 bitrate=1063.9kbits/s
    frame= 862 fps= 85 q=0.0 size= 4750kB time=00:00:35.86 bitrate=1084.9kbits/s
    frame= 898 fps= 85 q=0.0 size= 5069kB time=00:00:37.37 bitrate=1111.1kbits/s
    frame= 932 fps= 84 q=0.0 size= 5414kB time=00:00:38.80 bitrate=1142.9kbits/s
    frame= 969 fps= 84 q=0.0 size= 5738kB time=00:00:40.34 bitrate=1165.3kbits/s
    frame= 1005 fps= 83 q=0.0 size= 6087kB time=00:00:41.84 bitrate=1191.8kbits/s
    frame= 1039 fps= 82 q=0.0 size= 6418kB time=00:00:43.27 bitrate=1214.9kbits/s
    frame= 1074 fps= 82 q=0.0 size= 6731kB time=00:00:44.74 bitrate=1232.3kbits/s
    frame= 1105 fps= 81 q=0.0 size= 7051kB time=00:00:46.01 bitrate=1255.4kbits/s
    frame= 1141 fps= 81 q=0.0 size= 7356kB time=00:00:47.51 bitrate=1268.2kbits/s
    frame= 1178 fps= 81 q=0.0 size= 7674kB time=00:00:49.04 bitrate=1281.7kbits/s
    frame= 1216 fps= 80 q=0.0 size= 8022kB time=00:00:50.65 bitrate=1297.4kbits/s
    frame= 1259 fps= 80 q=0.0 size= 8315kB time=00:00:52.42 bitrate=1299.4kbits/s
    frame= 1294 fps= 80 q=0.0 size= 8662kB time=00:00:53.88 bitrate=1316.8kbits/s
    frame= 1324 fps= 80 q=0.0 size= 9018kB time=00:00:55.15 bitrate=1339.3kbits/s
    frame= 1358 fps= 79 q=0.0 size= 9315kB time=00:00:56.55 bitrate=1349.3kbits/s
    frame= 1396 fps= 79 q=0.0 size= 9602kB time=00:00:58.15 bitrate=1352.6kbits/s
    frame= 1431 fps= 79 q=0.0 size= 9940kB time=00:00:59.62 bitrate=1365.6kbits/s
    frame= 1468 fps= 79 q=0.0 size= 10267kB time=00:01:01.16 bitrate=1375.2kbits/s
    frame= 1506 fps= 79 q=0.0 size= 10586kB time=00:01:02.72 bitrate=1382.5kbits/s
    frame= 1543 fps= 78 q=0.0 size= 10924kB time=00:01:04.26 bitrate=1392.4kbits/s
    frame= 1585 fps= 78 q=0.0 size= 11178kB time=00:01:06.03 bitrate=1386.8kbits/s
    frame= 1620 fps= 78 q=0.0 size= 11559kB time=00:01:07.50 bitrate=1402.8kbits/s
    frame= 1655 fps= 78 q=0.0 size= 11908kB time=00:01:08.93 bitrate=1415.1kbits/s
    frame= 1689 fps= 78 q=0.0 size= 12225kB time=00:01:10.37 bitrate=1423.1kbits/s
    frame= 1730 fps= 78 q=0.0 size= 12518kB time=00:01:12.10 bitrate=1422.2kbits/s
    frame= 1773 fps= 78 q=0.0 size= 12795kB time=00:01:13.87 bitrate=1418.9kbits/s
    frame= 1813 fps= 78 q=0.0 size= 13058kB time=00:01:15.54 bitrate=1416.0kbits/s
    frame= 1856 fps= 78 q=0.0 size= 13277kB time=00:01:17.34 bitrate=1406.3kbits/s
    frame= 1887 fps= 78 q=0.0 size= 13568kB time=00:01:18.61 bitrate=1413.9kbits/s
    frame= 1920 fps= 78 q=0.0 size= 13856kB time=00:01:20.01 bitrate=1418.6kbits/s
    frame= 1954 fps= 77 q=0.0 size= 14104kB time=00:01:21.41 bitrate=1419.1kbits/s
    frame= 1986 fps= 77 q=0.0 size= 14324kB time=00:01:22.74 bitrate=1418.0kbits/s
    frame= 2023 fps= 77 q=0.0 size= 14682kB time=00:01:24.31 bitrate=1426.4kbits/s
    frame= 2059 fps= 77 q=0.0 size= 15048kB time=00:01:25.78 bitrate=1437.0kbits/s
    frame= 2102 fps= 77 q=0.0 size= 15298kB time=00:01:27.58 bitrate=1430.8kbits/s
    frame= 2141 fps= 77 q=0.0 size= 15633kB time=00:01:29.22 bitrate=1435.3kbits/s
    frame= 2183 fps= 77 q=0.0 size= 15928kB time=00:01:30.95 bitrate=1434.5kbits/s
    frame= 2228 fps= 77 q=0.0 size= 16236kB time=00:01:32.85 bitrate=1432.3kbits/s
    frame= 2262 fps= 77 q=0.0 size= 16551kB time=00:01:34.26 bitrate=1438.5kbits/s
    frame= 2303 fps= 77 q=0.0 size= 16813kB time=00:01:35.96 bitrate=1435.3kbits/s
    frame= 2346 fps= 77 q=0.0 size= 17119kB time=00:01:37.76 bitrate=1434.5kbits/s
    Last edited by Artex; 08-06-2014 at 10:57 AM.

  9. #9
    Join Date
    Nov 2007
    Location
    Melbourne, Australia
    Posts
    11,616

    Default

    Thanks. It appears your Chromecast is struggling with VP8 video. We just re-tested our Chromecast here and it is fine. What firmware version is your Chromecast running?

    Mezzmo Android: Install it on your tablet, smartphone, Android TV or Amazon Fire to browse and stream files from your Mezzmo library to all your devices. Full details at http://www.conceiva.com/products/mez...mo_android.asp
    Mezzmo for Kodi Add-on: Install it into Kodi to stream files from your Mezzmo library directly in Kodi. Full details at http://www.mezzmo.com/wiki/doku.php?...odi_user_guide
    Mezzmo for Roku App: Install it onto your Roku to stream files from your Mezzmo library. Full details at http://www.mezzmo.com/wiki/doku.php?...oku_user_guide
    Wiki: User Guides & Reference Manual at http://www.mezzmo.com/wiki
    Facebook: http://www.facebook.com/Mezzmo.DLNA.Server
    Twitter: https://twitter.com/conceiva_mezzmo
    Web: http://www.mezzmo.com

  10. #10

    Default

    Interesting. Firmware looks like 17977.

Similar Threads

  1. Not transcoding full movie.
    By hydie in forum Mezzmo Questions and Support
    Replies: 1
    Last Post: 01-07-2013, 10:15 AM
  2. View cover art full screen....or sequence folders.....or both
    By Roofus in forum Mezzmo Questions and Support
    Replies: 1
    Last Post: 02-22-2012, 09:49 AM
  3. vob's not being displayed full screen
    By josh in forum Mezzmo Questions and Support
    Replies: 1
    Last Post: 05-17-2011, 11:39 AM
  4. I need to change from full hd to 720x406 in transcoding.
    By Comancheace in forum Mezzmo Questions and Support
    Replies: 58
    Last Post: 07-26-2010, 10:05 AM

Tags for this Thread

Bookmarks

Posting Permissions

  • You may not post new threads
  • You may not post replies
  • You may not post attachments
  • You may not edit your posts
  •