Results 1 to 2 of 2

Thread: "flie not supported" problem

  1. #1

    Default "flie not supported" problem

    Hi!! i just recompressed some videos, because the problem was that in my sony bluray i can see some videos (sony bluray: DBP-S390) here is the info for example of one video that i cant see:


    ffmpeg version N-59793-g7a8318f Copyright (c) 2000-2014 the FFmpeg developers
    built on Jan 16 2014 16:39:38 with gcc 4.8.2 (GCC)
    configuration: --enable-memalign-hack --arch=x86 --target-os=mingw32 --cross-prefix=i686-w64-mingw32- --enable-static --disable-shared --enable-zlib --disable-postproc --prefix=/home/peter/ffmpeg/build/gpl32 --enable-libmp3lame --enable-libx264 --enable-gpl --extra-libs='-lx264 -lpthread' --enable-pthreads --enable-runtime-cpudetect --extra-cflags=-I/home/peter/cc32/include --extra-ldflags=-L/home/peter/cc32/lib --pkg-config=pkg-config --disable-w32threads --enable-zlib --enable-libvpx --enable-libvorbis
    libavutil 52. 62.100 / 52. 62.100
    libavcodec 55. 48.101 / 55. 48.101
    libavformat 55. 23.103 / 55. 23.103
    libavdevice 55. 5.102 / 55. 5.102
    libavfilter 4. 1.100 / 4. 1.100
    libswscale 2. 5.101 / 2. 5.101
    libswresample 0. 17.104 / 0. 17.104
    Input #0, avi, from 'F:\Peliculas\Picapiedra\los picapiedra 1 temporada\101_El.Picavion.avi':
    Metadata:
    encoder : Lavf51.12.1
    Duration: 00:25:21.37, start: 0.000000, bitrate: 606 kb/s
    Stream #0:0: Video: mpeg4 (Simple Profile) (DX50 / 0x30355844), yuv420p, 640x464 [SAR 1:1 DAR 40:29], 29.97 fps, 29.97 tbr, 29.97 tbn, 2997 tbc
    Stream #0:1: Audio: mp3 (U[0][0][0] / 0x0055), 44100 Hz, stereo, s16p, 128 kb/s
    At least one output file must be specified

    <MEZZMO>: Child process ended with code: 109, ExitCode=1


    ---> DB Level Info: 1, 0
    ---> Frame rate: 29.97
    ---> Aspect ratio: 40:29 PAR=1:1
    ---> Duration: 00:25:21

    but THAT VIDEO in the other bluray (a samsung BD-F5100/ZX) it can reproduce without problems

    ANOTHER EXAMPLE

    this other video:

    ffmpeg version N-59793-g7a8318f Copyright (c) 2000-2014 the FFmpeg developers
    built on Jan 16 2014 16:39:38 with gcc 4.8.2 (GCC)
    configuration: --enable-memalign-hack --arch=x86 --target-os=mingw32 --cross-prefix=i686-w64-mingw32- --enable-static --disable-shared --enable-zlib --disable-postproc --prefix=/home/peter/ffmpeg/build/gpl32 --enable-libmp3lame --enable-libx264 --enable-gpl --extra-libs='-lx264 -lpthread' --enable-pthreads --enable-runtime-cpudetect --extra-cflags=-I/home/peter/cc32/include --extra-ldflags=-L/home/peter/cc32/lib --pkg-config=pkg-config --disable-w32threads --enable-zlib --enable-libvpx --enable-libvorbis
    libavutil 52. 62.100 / 52. 62.100
    libavcodec 55. 48.101 / 55. 48.101
    libavformat 55. 23.103 / 55. 23.103
    libavdevice 55. 5.102 / 55. 5.102
    libavfilter 4. 1.100 / 4. 1.100
    libswscale 2. 5.101 / 2. 5.101
    libswresample 0. 17.104 / 0. 17.104
    [rm @ 01aaea20] Invalid stream index 2 for index at pos 86534843
    Input #0, rm, from 'F:\Peliculas\Picapiedra\los picapiedra 4 temporada\4-01 El.Show.de.Ana.Magroca.rmvb':
    Metadata:
    title :
    author :
    copyright :
    comment :
    ASMRuleBook : #($Bandwidth >= 0),Stream0Bandwidth = 64082, Stream1Bandwidth = 385918;
    Audiences : Easy RealMedia Tool's Audience;
    audioMode : music
    Creation Date : 6/1/2012 15:58:50
    Description : This File is Created by Easy RealMedia Tools@!
    Email : rick@redcheek.net
    Generated By : Easy RealMedia Tools V1.8x
    HomeWeb : http://redcheek.net
    Keywords :
    Modification Date: 6/1/2012 15:58:50
    videoMode : normal
    Duration: 00:24:18.21, start: 0.000000, bitrate: 474 kb/s
    Stream #0:0: Audio: cook (cook / 0x6B6F6F63), 44100 Hz, stereo, fltp, 64 kb/s
    Stream #0:1: Video: rv40 (RV40 / 0x30345652), yuv420p, 512x384, 401 kb/s, 25 fps, 25 tbr, 1k tbn, 1k tbc
    At least one output file must be specified

    <MEZZMO>: Child process ended with code: 109, ExitCode=1


    ---> DB Level Info: -99, -99
    ---> Frame rate: 25.00
    ---> Aspect ratio:
    ---> Duration: 00:24:18

    THIS VIDEO runs very nice on the SONY BLURAY but in the SAMSUNG bluray i even can't see files in that folder

    any idea of how i can solve it?

    thanks in advance!


    PS: the devices have this profiles:

    SONY: SONY-BDP, HT, SMP (2011 MODELS)

    SAMSUNG: SAMSUNG b COMPATIBLE

    thanks in advance!!!

  2. #2
    Join Date
    Nov 2007
    Location
    Melbourne, Australia
    Posts
    11,616

    Default

    Try pre-transcoding the videos and see if they play. Right-click on the video and click 'Pre-transcode Files'. On the Pre-transcode Files dialog, select your device and click 'Choose Formats'. On the Transcoding Formats dialog select the bolded format and select the 'Force full transcode of all channels' checkbox. Click OK and then select the 'Pre-transcode files even if they match the device's supported formats' checkbox. Click OK and wait until the file has been transcoded. Then try streaming it to your device.

    Mezzmo Android: Install it on your tablet, smartphone, Android TV or Amazon Fire to browse and stream files from your Mezzmo library to all your devices. Full details at http://www.conceiva.com/products/mez...mo_android.asp
    Mezzmo for Kodi Add-on: Install it into Kodi to stream files from your Mezzmo library directly in Kodi. Full details at http://www.mezzmo.com/wiki/doku.php?...odi_user_guide
    Mezzmo for Roku App: Install it onto your Roku to stream files from your Mezzmo library. Full details at http://www.mezzmo.com/wiki/doku.php?...oku_user_guide
    Wiki: User Guides & Reference Manual at http://www.mezzmo.com/wiki
    Facebook: http://www.facebook.com/Mezzmo.DLNA.Server
    Twitter: https://twitter.com/conceiva_mezzmo
    Web: http://www.mezzmo.com

Similar Threads

  1. "File You've Selected is Currently Not Supported" - AVI, MP4, -- Mezzmo
    By Davidp in forum Mezzmo Questions and Support
    Replies: 8
    Last Post: 10-24-2013, 12:21 PM
  2. "Not supported file format" on Samsung UE40C6700
    By turtle in forum Mezzmo Questions and Support
    Replies: 7
    Last Post: 04-30-2012, 10:22 AM
  3. "Not supported file format" on Samsung UN55C8000
    By brown3223 in forum Mezzmo Questions and Support
    Replies: 15
    Last Post: 04-26-2012, 10:29 AM
  4. "File not supported" with Mezzom; with Samsung PC Share Manager it works
    By Rapishu in forum Mezzmo Questions and Support
    Replies: 3
    Last Post: 11-15-2011, 02:11 PM
  5. Mezzmo Video Error: "File Not Supported" - Suggested Fix for mkv files
    By bigdog in forum Mezzmo Questions and Support
    Replies: 0
    Last Post: 03-31-2011, 10:33 AM

Tags for this Thread

Bookmarks

Posting Permissions

  • You may not post new threads
  • You may not post replies
  • You may not post attachments
  • You may not edit your posts
  •