Results 1 to 2 of 2

Thread: Samsung HT-C5550 and DTS HD

  1. #1
    Join Date
    Oct 2010
    Posts
    15

    Question Samsung HT-C5550 and DTS HD

    Hi Paul,

    could you just check why i get only a stuttering Sound instead of the proper stream ?
    the ht-c5550 is able to Play dts-hd, but won't do it.
    any idea ?
    ffmpeg info below

    ffmpeg version N-66154-g1654ca7 Copyright (c) 2000-2014 the FFmpeg developers
    built on Sep 5 2014 22:10:38 with gcc 4.8.3 (GCC)
    configuration: --enable-gpl --enable-version3 --disable-w32threads --enable-avisynth --enable-bzlib --enable-fontconfig --enable-frei0r --enable-gnutls --enable-iconv --enable-libass --enable-libbluray --enable-libbs2b --enable-libcaca --enable-libfreetype --enable-libgme --enable-libgsm --enable-libilbc --enable-libmodplug --enable-libmp3lame --enable-libopencore-amrnb --enable-libopencore-amrwb --enable-libopenjpeg --enable-libopus --enable-librtmp --enable-libschroedinger --enable-libsoxr --enable-libspeex --enable-libtheora --enable-libtwolame --enable-libvidstab --enable-libvo-aacenc --enable-libvo-amrwbenc --enable-libvorbis --enable-libvpx --enable-libwavpack --enable-libwebp --enable-libx264 --enable-libx265 --enable-libxavs --enable-libxvid --enable-decklink --enable-zlib
    libavutil 54. 7.100 / 54. 7.100
    libavcodec 56. 1.100 / 56. 1.100
    libavformat 56. 4.100 / 56. 4.100
    libavdevice 56. 0.100 / 56. 0.100
    libavfilter 5. 1.100 / 5. 1.100
    libswscale 3. 0.100 / 3. 0.100
    libswresample 1. 1.100 / 1. 1.100
    libpostproc 53. 0.100 / 53. 0.100
    Input #0, matroska,webm, from 'F:\Movies\3D\Comics\Lego Movie\The Lego Movie.mkv':
    Metadata:
    title : mixed by LameHD
    encoder : libebml v1.3.0 + libmatroska v1.4.1
    creation_time : 2014-08-19 21:36:24
    Duration: 01:40:35.32, start: 0.000000, bitrate: 10146 kb/s
    Chapter #0.0: start 0.000000, end 584.042000
    Metadata:
    title : 00:00:00.000
    Chapter #0.1: start 584.042000, end 1098.389000
    Metadata:
    title : 00:09:44.042
    Chapter #0.2: start 1098.389000, end 1790.747000
    Metadata:
    title : 00:18:18.389
    Chapter #0.3: start 1790.747000, end 2328.034000
    Metadata:
    title : 00:29:50.747
    Chapter #0.4: start 2328.034000, end 2925.047000
    Metadata:
    title : 00:38:48.034
    Chapter #0.5: start 2925.047000, end 3469.424000
    Metadata:
    title : 00:48:45.047
    Chapter #0.6: start 3469.424000, end 3965.253000
    Metadata:
    title : 00:57:49.424
    Chapter #0.7: start 3965.253000, end 4584.205000
    Metadata:
    title : 01:06:05.253
    Chapter #0.8: start 4584.205000, end 5156.151000
    Metadata:
    title : 01:16:24.205
    Chapter #0.9: start 5156.151000, end 5577.322000
    Metadata:
    title : 01:25:56.151
    Chapter #0.10: start 5577.322000, end 6035.321000
    Metadata:
    title : 01:32:57.322
    Stream #0:0(eng): Video: h264 (High), yuv420p, 1920x1080 [SAR 1:1 DAR 16:9], 23.98 fps, 23.98 tbr, 1k tbn, 47.95 tbc (default)
    Metadata:
    BPS : 4949727
    BPS-eng : 4949727
    DURATION : 01:40:35.321000000
    DURATION-eng : 01:40:35.321000000
    NUMBER_OF_FRAMES: 144703
    NUMBER_OF_FRAMES-eng: 144703
    NUMBER_OF_BYTES : 3734149105
    NUMBER_OF_BYTES-eng: 3734149105
    _STATISTICS_WRITING_APP: mkvmerge v7.1.0 ('Good Love') 64bit built on Jul 27 2014 13:06:55
    _STATISTICS_WRITING_APP-eng: mkvmerge v7.1.0 ('Good Love') 64bit built on Jul 27 2014 13:06:55
    _STATISTICS_WRITING_DATE_UTC: 2014-08-19 21:36:24
    _STATISTICS_WRITING_DATE_UTC-eng: 2014-08-19 21:36:24
    _STATISTICS_TAGS: BPS DURATION NUMBER_OF_FRAMES NUMBER_OF_BYTES
    _STATISTICS_TAGS-eng: BPS DURATION NUMBER_OF_FRAMES NUMBER_OF_BYTES
    Stream #0:1(ger): Audio: dts (DTS-HD MA), 48000 Hz, 5.1(side), fltp, 1536 kb/s (default) (forced)
    Metadata:
    title : German DTS 5.1 @ 1509 kbps mixed by LameHD
    _STATISTICS_WRITING_APP: mkvmerge v7.1.0 ('Good Love') 64bit built on Jul 27 2014 13:06:55
    _STATISTICS_WRITING_APP-eng: mkvmerge v7.1.0 ('Good Love') 64bit built on Jul 27 2014 13:06:55
    _STATISTICS_WRITING_DATE_UTC: 2014-08-19 21:36:24
    _STATISTICS_WRITING_DATE_UTC-eng: 2014-08-19 21:36:24
    _STATISTICS_TAGS: BPS DURATION NUMBER_OF_FRAMES NUMBER_OF_BYTES
    _STATISTICS_TAGS-eng: BPS DURATION NUMBER_OF_FRAMES NUMBER_OF_BYTES
    BPS : 3673594
    BPS-eng : 3673594
    DURATION : 01:40:35.318000000
    DURATION-eng : 01:40:35.318000000
    NUMBER_OF_FRAMES: 565811
    NUMBER_OF_FRAMES-eng: 565811
    NUMBER_OF_BYTES : 2771414024
    NUMBER_OF_BYTES-eng: 2771414024
    Stream #0:2(eng): Audio: dts (DTS), 48000 Hz, 5.1(side), fltp, 1536 kb/s
    Metadata:
    _STATISTICS_WRITING_APP: mkvmerge v7.1.0 ('Good Love') 64bit built on Jul 27 2014 13:06:55
    _STATISTICS_WRITING_APP-eng: mkvmerge v7.1.0 ('Good Love') 64bit built on Jul 27 2014 13:06:55
    _STATISTICS_WRITING_DATE_UTC: 2014-08-19 21:36:24
    _STATISTICS_WRITING_DATE_UTC-eng: 2014-08-19 21:36:24
    _STATISTICS_TAGS: BPS DURATION NUMBER_OF_FRAMES NUMBER_OF_BYTES
    _STATISTICS_TAGS-eng: BPS DURATION NUMBER_OF_FRAMES NUMBER_OF_BYTES
    BPS : 1509002
    BPS-eng : 1509002
    DURATION : 01:40:35.274000000
    DURATION-eng : 01:40:35.274000000
    NUMBER_OF_FRAMES: 565808
    NUMBER_OF_FRAMES-eng: 565808
    NUMBER_OF_BYTES : 1138405696
    NUMBER_OF_BYTES-eng: 1138405696
    Stream #0:3(ger): Subtitle: dvd_subtitle, 1920x1080 (default)
    Metadata:
    _STATISTICS_WRITING_APP: mkvmerge v7.1.0 ('Good Love') 64bit built on Jul 27 2014 13:06:55
    _STATISTICS_WRITING_APP-eng: mkvmerge v7.1.0 ('Good Love') 64bit built on Jul 27 2014 13:06:55
    _STATISTICS_WRITING_DATE_UTC: 2014-08-19 21:36:24
    _STATISTICS_WRITING_DATE_UTC-eng: 2014-08-19 21:36:24
    _STATISTICS_TAGS: BPS DURATION NUMBER_OF_FRAMES NUMBER_OF_BYTES
    _STATISTICS_TAGS-eng: BPS DURATION NUMBER_OF_FRAMES NUMBER_OF_BYTES
    BPS : 9541
    BPS-eng : 9541
    DURATION : 01:39:52.111000000
    DURATION-eng : 01:39:52.111000000
    NUMBER_OF_FRAMES: 2142
    NUMBER_OF_FRAMES-eng: 2142
    NUMBER_OF_BYTES : 7146885
    NUMBER_OF_BYTES-eng: 7146885
    Stream #0:4(eng): Subtitle: subrip
    Metadata:
    _STATISTICS_WRITING_APP: mkvmerge v7.1.0 ('Good Love') 64bit built on Jul 27 2014 13:06:55
    _STATISTICS_WRITING_APP-eng: mkvmerge v7.1.0 ('Good Love') 64bit built on Jul 27 2014 13:06:55
    _STATISTICS_WRITING_DATE_UTC: 2014-08-19 21:36:24
    _STATISTICS_WRITING_DATE_UTC-eng: 2014-08-19 21:36:24
    _STATISTICS_TAGS: BPS DURATION NUMBER_OF_FRAMES NUMBER_OF_BYTES
    _STATISTICS_TAGS-eng: BPS DURATION NUMBER_OF_FRAMES NUMBER_OF_BYTES
    BPS : 0
    BPS-eng : 0
    DURATION : 01:11:31.119000000
    DURATION-eng : 01:11:31.119000000
    NUMBER_OF_FRAMES: 9
    NUMBER_OF_FRAMES-eng: 9
    NUMBER_OF_BYTES : 156
    NUMBER_OF_BYTES-eng: 156
    At least one output file must be specified

    <MEZZMO>: Child process ended with code: 109, ExitCode=1


    ---> DB Level Info: 41, 100
    ---> Frame rate: 23,98
    ---> Aspect ratio: 16:9 PAR=1:1
    ---> Duration: 01:40:35

    ffmpeg version N-66154-g1654ca7 Copyright (c) 2000-2014 the FFmpeg developers
    built on Sep 5 2014 22:10:38 with gcc 4.8.3 (GCC)
    configuration: --enable-gpl --enable-version3 --disable-w32threads --enable-avisynth --enable-bzlib --enable-fontconfig --enable-frei0r --enable-gnutls --enable-iconv --enable-libass --enable-libbluray --enable-libbs2b --enable-libcaca --enable-libfreetype --enable-libgme --enable-libgsm --enable-libilbc --enable-libmodplug --enable-libmp3lame --enable-libopencore-amrnb --enable-libopencore-amrwb --enable-libopenjpeg --enable-libopus --enable-librtmp --enable-libschroedinger --enable-libsoxr --enable-libspeex --enable-libtheora --enable-libtwolame --enable-libvidstab --enable-libvo-aacenc --enable-libvo-amrwbenc --enable-libvorbis --enable-libvpx --enable-libwavpack --enable-libwebp --enable-libx264 --enable-libx265 --enable-libxavs --enable-libxvid --enable-decklink --enable-zlib
    libavutil 54. 7.100 / 54. 7.100
    libavcodec 56. 1.100 / 56. 1.100
    libavformat 56. 4.100 / 56. 4.100
    libavdevice 56. 0.100 / 56. 0.100
    libavfilter 5. 1.100 / 5. 1.100
    libswscale 3. 0.100 / 3. 0.100
    libswresample 1. 1.100 / 1. 1.100
    libpostproc 53. 0.100 / 53. 0.100
    [matroska,webm @ 0000000000340980] Could not find codec parameters for stream 4 (Attachment: none): unknown codec
    Consider increasing the value for the 'analyzeduration' and 'probesize' options
    Input #0, matroska,webm, from 'F:\Movies\3D\Filme\Noah\Noah.mkv':
    Metadata:
    title : Pate
    encoder : libebml v0.8.0 + libmatroska v0.9.0
    creation_time : 2014-08-04 09:39:40
    Duration: 02:17:53.06, start: 0.000000, bitrate: 13392 kb/s
    Chapter #0.0: start 0.000000, end 288.955000
    Metadata:
    title : 00:00:00.000
    Chapter #0.1: start 288.955000, end 517.267000
    Metadata:
    title : 00:04:48.955
    Chapter #0.2: start 517.267000, end 743.034000
    Metadata:
    title : 00:08:37.267
    Chapter #0.3: start 743.034000, end 1123.080000
    Metadata:
    title : 00:12:23.034
    Chapter #0.4: start 1123.080000, end 1405.487000
    Metadata:
    title : 00:18:43.080
    Chapter #0.5: start 1405.487000, end 1926.424000
    Metadata:
    title : 00:23:25.487
    Chapter #0.6: start 1926.424000, end 2247.203000
    Metadata:
    title : 00:32:06.424
    Chapter #0.7: start 2247.203000, end 2570.735000
    Metadata:
    title : 00:37:27.203
    Chapter #0.8: start 2570.735000, end 3275.647000
    Metadata:
    title : 00:42:50.735
    Chapter #0.9: start 3275.647000, end 3674.963000
    Metadata:
    title : 00:54:35.647
    Chapter #0.10: start 3674.963000, end 3808.596000
    Metadata:
    title : 01:01:14.963
    Chapter #0.11: start 3808.596000, end 4173.795000
    Metadata:
    title : 01:03:28.596
    Chapter #0.12: start 4173.795000, end 4758.337000
    Metadata:
    title : 01:09:33.795
    Chapter #0.13: start 4758.337000, end 4916.537000
    Metadata:
    title : 01:19:18.337
    Chapter #0.14: start 4916.537000, end 5352.347000
    Metadata:
    title : 01:21:56.537
    Chapter #0.15: start 5352.347000, end 5642.053000
    Metadata:
    title : 01:29:12.347
    Chapter #0.16: start 5642.053000, end 6027.355000
    Metadata:
    title : 01:34:02.053
    Chapter #0.17: start 6027.355000, end 6563.098000
    Metadata:
    title : 01:40:27.355
    Chapter #0.18: start 6563.098000, end 6957.826000
    Metadata:
    title : 01:49:23.098
    Chapter #0.19: start 6957.826000, end 7237.230000
    Metadata:
    title : 01:55:57.826
    Chapter #0.20: start 7237.230000, end 7892.676000
    Metadata:
    title : 02:00:37.230
    Chapter #0.21: start 7892.676000, end 8273.056000
    Metadata:
    title : 02:11:32.676
    Stream #0:0(eng): Video: h264 (High), yuv420p(tv, bt709), 1920x1080, SAR 1:1 DAR 16:9, 23.98 fps, 23.98 tbr, 1k tbn, 47.95 tbc (default) (forced)
    Metadata:
    title : 3D-OU
    Stream #0:1(ger): Audio: dts (DTS-HD MA), 48000 Hz, 5.1(side), fltp, 1536 kb/s (default) (forced)
    Metadata:
    title : DTS 7.1 dubbed by Pate
    Stream #0:2(eng): Audio: dts (DTS), 48000 Hz, 5.1(side), fltp, 1536 kb/s
    Metadata:
    title : DTS 5.1
    Stream #0:3: Attachment: text
    Metadata:
    filename : _ENCODE_3D_MOVIE.avs
    mimetype : text/plain
    Stream #0:4: Attachment: none
    Metadata:
    filename : _ENCODE.cmd
    mimetype : text/x-msdos-batch
    At least one output file must be specified

    <MEZZMO>: Child process ended with code: 109, ExitCode=1


    ---> DB Level Info: 41, 100
    ---> Frame rate: 23,98
    ---> Aspect ratio: 16:9 PAR=1:1
    ---> Duration: 02:17:53

    Thanks in advance
    Kind regards
    Björn

  2. #2
    Join Date
    Nov 2007
    Location
    Melbourne, Australia
    Posts
    11,616

    Default

    My guess the reason for the stuttering audio is possibly the audio bitrate or even the video bitrate of the video file is higher than what the device's firmware can decode & play.

    Try pre-transcoding the file and that may help (see http://forum.conceiva.com/showthread...nscoding-Files). Also, check this FAQ for other possible reasons for stuttering - http://forum.conceiva.com/showthread...reaming-videos.

    If no success, let us know and we'll help further.

    Mezzmo Android: Install it on your tablet, smartphone, Android TV or Amazon Fire to browse and stream files from your Mezzmo library to all your devices. Full details at http://www.conceiva.com/products/mez...mo_android.asp
    Mezzmo for Kodi Add-on: Install it into Kodi to stream files from your Mezzmo library directly in Kodi. Full details at http://www.mezzmo.com/wiki/doku.php?...odi_user_guide
    Mezzmo for Roku App: Install it onto your Roku to stream files from your Mezzmo library. Full details at http://www.mezzmo.com/wiki/doku.php?...oku_user_guide
    Wiki: User Guides & Reference Manual at http://www.mezzmo.com/wiki
    Facebook: http://www.facebook.com/Mezzmo.DLNA.Server
    Twitter: https://twitter.com/conceiva_mezzmo
    Web: http://www.mezzmo.com

Similar Threads

  1. Samsung DTS transcode AC3
    By hardstylemaster in forum Mezzmo Questions and Support
    Replies: 2
    Last Post: 04-28-2014, 09:33 AM
  2. DCA (DTS Coherent Acoustics) codec with samsung d6500
    By troyb1 in forum Mezzmo Questions and Support
    Replies: 5
    Last Post: 06-15-2012, 04:33 PM
  3. Help with Samsung HT-C5550
    By blastman in forum Mezzmo Questions and Support
    Replies: 4
    Last Post: 04-24-2012, 06:01 PM
  4. DTS transcoded on LG TV
    By gb7 in forum Mezzmo Questions and Support
    Replies: 14
    Last Post: 02-11-2012, 08:29 PM
  5. BDP-S370 and DTS how do I get it to play DTS?
    By Pain in forum Mezzmo Questions and Support
    Replies: 3
    Last Post: 05-30-2011, 06:38 AM

Tags for this Thread

Bookmarks

Posting Permissions

  • You may not post new threads
  • You may not post replies
  • You may not post attachments
  • You may not edit your posts
  •