Results 1 to 4 of 4

Thread: Supported file formats on Samsung UE40C6700

  1. #1
    Join Date
    Oct 2010
    Posts
    2

    Default Supported file formats on Samsung UE40C6700

    I can play all files i have recorded when i play them from USB Drive which is connected to my UE40C6700.
    But i cant play them over Network with Mezzmo.
    Files have Extension .ts and are from my TV-Card in my Computer.
    My location is Germany and the recorded files are from ASTRA 19.2.

    I hope u can Help me and sorry for my bad english.

    Formats:

    SD:

    FFmpeg version SVN-r25157, Copyright (c) 2000-2010 the FFmpeg developers
    built on Sep 22 2010 12:40:23 with gcc 4.4.2
    configuration: --enable-memalign-hack --arch=x86 --target-os=mingw32 --cross-prefix=i686-mingw32- --enable-static --disable-shared --enable-zlib --disable-ffprobe --disable-ffplay --prefix=/media/windows-share/ffmpeg --extra-cflags=-U__STRICT_ANSI__ --enable-libmp3lame --enable-libx264 --enable-gpl --extra-libs='-lx264 -lpthread' --enable-runtime-cpudetect
    libavutil 50.27. 0 / 50.27. 0
    libavcore 0. 9. 0 / 0. 9. 0
    libavcodec 52.89. 0 / 52.89. 0
    libavformat 52.78. 5 / 52.78. 5
    libavdevice 52. 2. 2 / 52. 2. 2
    libavfilter 1.39. 0 / 1.39. 0
    libswscale 0.11. 0 / 0.11. 0
    [mpegts @ 002dccf0] max_analyze_duration reached
    Input #0, mpegts, from 'E:\Multimedia\Spielfilme\SDTV\Mission Impossible III\Mission_ Impossible III - ProSieben - 2009-01-25.ts':
    Duration: 02:30:08.00, start: 319.634856, bitrate: 4114 kb/s
    Program 137
    Stream #0.0[0x6b](deu): Subtitle: [6][0][0][0] / 0x0006
    Stream #0.1[0x30]: Video: mpeg2video, yuv420p, 720x576 [PAR 64:45 DAR 16:9], 15000 kb/s, 25 fps, 25 tbr, 90k tbn, 50 tbc
    Stream #0.2[0x40](deu): Audio: mp2, 48000 Hz, 2 channels, s16, 192 kb/s
    Stream #0.3[0x41](deu): Audio: ac3, 48000 Hz, 5.1, s16, 384 kb/s
    At least one output file must be specified


    ---> DB Level Info: 8


    HD 1080i:

    FFmpeg version SVN-r25157, Copyright (c) 2000-2010 the FFmpeg developers
    built on Sep 22 2010 12:40:23 with gcc 4.4.2
    configuration: --enable-memalign-hack --arch=x86 --target-os=mingw32 --cross-prefix=i686-mingw32- --enable-static --disable-shared --enable-zlib --disable-ffprobe --disable-ffplay --prefix=/media/windows-share/ffmpeg --extra-cflags=-U__STRICT_ANSI__ --enable-libmp3lame --enable-libx264 --enable-gpl --extra-libs='-lx264 -lpthread' --enable-runtime-cpudetect
    libavutil 50.27. 0 / 50.27. 0
    libavcore 0. 9. 0 / 0. 9. 0
    libavcodec 52.89. 0 / 52.89. 0
    libavformat 52.78. 5 / 52.78. 5
    libavdevice 52. 2. 2 / 52. 2. 2
    libavfilter 1.39. 0 / 1.39. 0
    libswscale 0.11. 0 / 0.11. 0
    [mpegts @ 0160ccf0] max_analyze_duration reached

    Seems stream 0 codec frame rate differs from container frame rate: 50.00 (50/1) -> 50.00 (50/1)
    Input #0, mpegts, from 'E:\Multimedia\Spielfilme\HDTV\Das Kartell-ProSieben HD\Das Kartell-2007-12-01-20_14.ts':
    Duration: 02:10:40.05, start: 5.000000, bitrate: 7829 kb/s
    Program 10200
    Stream #0.0[0xff]: Video: h264, yuv420p, 1920x1088 [PAR 1:1 DAR 30:17], 30.60 fps, 50 tbr, 90k tbn, 50 tbc
    Stream #0.1[0x103](ger): Audio: ac3, 48000 Hz, 5.1, s16, 448 kb/s
    At least one output file must be specified


    ---> DB Level Info: 40

    HD 720P:

    FFmpeg version SVN-r25157, Copyright (c) 2000-2010 the FFmpeg developers
    built on Sep 22 2010 12:40:23 with gcc 4.4.2
    configuration: --enable-memalign-hack --arch=x86 --target-os=mingw32 --cross-prefix=i686-mingw32- --enable-static --disable-shared --enable-zlib --disable-ffprobe --disable-ffplay --prefix=/media/windows-share/ffmpeg --extra-cflags=-U__STRICT_ANSI__ --enable-libmp3lame --enable-libx264 --enable-gpl --extra-libs='-lx264 -lpthread' --enable-runtime-cpudetect
    libavutil 50.27. 0 / 50.27. 0
    libavcore 0. 9. 0 / 0. 9. 0
    libavcodec 52.89. 0 / 52.89. 0
    libavformat 52.78. 5 / 52.78. 5
    libavdevice 52. 2. 2 / 52. 2. 2
    libavfilter 1.39. 0 / 1.39. 0
    libswscale 0.11. 0 / 0.11. 0
    [h264 @ 032080b0] mmco: unref short failure
    Input #0, mpegts, from 'E:\Multimedia\Spielfilme\HDTV\Harry Potter und der Feuerkelch\Harry Potter und der Feuerkelch - Das Erste HD - 2009-12-26 - 20_15 (Edited).ts':
    Duration: 02:18:54.13, start: 4.860078, bitrate: 13090 kb/s
    Program 137
    Stream #0.0[0x30]: Video: h264, yuv420p, 1280x720 [PAR 1:1 DAR 16:9], 50 fps, 50 tbr, 90k tbn, 100 tbc
    Stream #0.1[0x40]: Audio: mp2, 48000 Hz, 2 channels, s16, 256 kb/s
    Stream #0.2[0x41](ger): Audio: ac3, 48000 Hz, 5.1, s16, 448 kb/s
    At least one output file must be specified


    ---> DB Level Info: 40

  2. #2
    Join Date
    Nov 2007
    Location
    Melbourne, Australia
    Posts
    11,616

    Default

    Can you please tell me which device profile you're using (check the Media Devices dialog)?

    And please send a message to support (at) conceiva (dot) com for an updated device profile.

    Mezzmo Android: Install it on your tablet, smartphone, Android TV or Amazon Fire to browse and stream files from your Mezzmo library to all your devices. Full details at http://www.conceiva.com/products/mez...mo_android.asp
    Mezzmo for Kodi Add-on: Install it into Kodi to stream files from your Mezzmo library directly in Kodi. Full details at http://www.mezzmo.com/wiki/doku.php?...odi_user_guide
    Mezzmo for Roku App: Install it onto your Roku to stream files from your Mezzmo library. Full details at http://www.mezzmo.com/wiki/doku.php?...oku_user_guide
    Wiki: User Guides & Reference Manual at http://www.mezzmo.com/wiki
    Facebook: http://www.facebook.com/Mezzmo.DLNA.Server
    Twitter: https://twitter.com/conceiva_mezzmo
    Web: http://www.mezzmo.com

  3. #3
    Join Date
    Oct 2010
    Posts
    2

    Default

    I have selected the "Samsung C" Profile in Media Device dialog.

    I have 1 other question. In my computer i have 3 NIC with different IP-Adresses.
    Is it possible to bind the mezzmo sercice to one specific IP-Adress?

    thx for ur help

  4. #4
    Join Date
    Nov 2007
    Location
    Melbourne, Australia
    Posts
    11,616

    Default

    Yes, the upcoming minor update will allow you to bind Mezzmo to a specific IP address.

    I'll get back to you via e-mail regarding the device profile.

    Mezzmo Android: Install it on your tablet, smartphone, Android TV or Amazon Fire to browse and stream files from your Mezzmo library to all your devices. Full details at http://www.conceiva.com/products/mez...mo_android.asp
    Mezzmo for Kodi Add-on: Install it into Kodi to stream files from your Mezzmo library directly in Kodi. Full details at http://www.mezzmo.com/wiki/doku.php?...odi_user_guide
    Mezzmo for Roku App: Install it onto your Roku to stream files from your Mezzmo library. Full details at http://www.mezzmo.com/wiki/doku.php?...oku_user_guide
    Wiki: User Guides & Reference Manual at http://www.mezzmo.com/wiki
    Facebook: http://www.facebook.com/Mezzmo.DLNA.Server
    Twitter: https://twitter.com/conceiva_mezzmo
    Web: http://www.mezzmo.com

Tags for this Thread

Bookmarks

Posting Permissions

  • You may not post new threads
  • You may not post replies
  • You may not post attachments
  • You may not edit your posts
  •