Results 1 to 4 of 4

Thread: Sony BDP-S480/580: MKVs with MPEG-2 Content "Corrupt or Unsupported"

  1. #1
    Join Date
    Jul 2012
    Posts
    47

    Default Sony BDP-S480/580: MKVs with MPEG-2 Content "Corrupt or Unsupported" [SOLVED]

    This occurs with any MKV I try that has MPEG-2 content. Here is the FFmpeg info from one of them:

    ffmpeg version N-59793-g7a8318f Copyright (c) 2000-2014 the FFmpeg developers
    built on Jan 16 2014 16:51:32 with gcc 4.8.2 (GCC)
    configuration: --enable-memalign-hack --arch=x86_64 --target-os=mingw32 --cross-prefix=x86_64-w64-mingw32- --enable-static --disable-shared --enable-zlib --disable-postproc --prefix=/home/peter/ffmpeg/build/gpl64 --enable-libmp3lame --enable-libx264 --enable-gpl --extra-libs='-lx264 -lpthread' --enable-runtime-cpudetect --extra-cflags=-I/home/peter/cc32/include --extra-ldflags=-L/home/peter/cc64/lib --pkg-config=pkg-config --disable-w32threads --enable-libvpx --enable-libvorbis
    libavutil 52. 62.100 / 52. 62.100
    libavcodec 55. 48.101 / 55. 48.101
    libavformat 55. 23.103 / 55. 23.103
    libavdevice 55. 5.102 / 55. 5.102
    libavfilter 4. 1.100 / 4. 1.100
    libswscale 2. 5.101 / 2. 5.101
    libswresample 0. 17.104 / 0. 17.104
    Input #0, matroska,webm, from '\\kdlinks\c\MOVIES\Millennium\Season 1\MILLENNIUM_S1_D3_1.mkv':
    Metadata:
    encoder : libmakemkv v1.8.13 (1.3.0/1.4.1) x86_64-linux-gnu
    creation_time : 2014-10-12 00:19:17
    Duration: 00:43:40.70, start: 0.000000, bitrate: 5613 kb/s
    Chapter #0.0: start 0.000000, end 281.180900
    Metadata:
    title : Chapter 01
    Chapter #0.1: start 281.180900, end 586.285700
    Metadata:
    title : Chapter 02
    Chapter #0.2: start 586.285700, end 814.380233
    Metadata:
    title : Chapter 03
    Chapter #0.3: start 814.380233, end 923.322400
    Metadata:
    title : Chapter 04
    Chapter #0.4: start 923.322400, end 1180.913067
    Metadata:
    title : Chapter 05
    Chapter #0.5: start 1180.913067, end 1403.101700
    Metadata:
    title : Chapter 06
    Chapter #0.6: start 1403.101700, end 1703.234867
    Metadata:
    title : Chapter 07
    Chapter #0.7: start 1703.234867, end 1848.379867
    Metadata:
    title : Chapter 08
    Chapter #0.8: start 1848.379867, end 1924.906317
    Metadata:
    title : Chapter 09
    Chapter #0.9: start 1924.906317, end 2132.029900
    Metadata:
    title : Chapter 10
    Chapter #0.10: start 2132.029900, end 2412.777033
    Metadata:
    title : Chapter 11
    Chapter #0.11: start 2412.777033, end 2620.704000
    Metadata:
    title : Chapter 12
    Stream #0:0(eng): Video: mpeg2video (Main), yuv420p(tv, smpte170m), 720x480 [SAR 8:9 DAR 4:3], max. 9800 kb/s, 29.97 fps, 29.97 tbr, 1k tbn, 59.94 tbc
    Stream #0:1(eng): Audio: ac3, 48000 Hz, stereo, fltp, 192 kb/s (default)
    Metadata:
    title : Stereo
    Stream #0:2(eng): Subtitle: dvd_subtitle, 720x480 (default)
    At least one output file must be specified

    <MEZZMO>: Child process ended with code: 109, ExitCode=1


    ---> DB Level Info: 8, 4
    ---> Frame rate: 29.97
    ---> Aspect ratio: 4:3 PAR=8:9
    ---> Duration: 00:43:40


    The files appear on the player as "MPEG," as though it were going to play them "natively."

    Logs sent via e-mail; thanks in advance.

    - Gene
    Last edited by Nyarlathotep; 10-13-2014 at 10:10 AM.
    Amazon FireTV | KDLINKS HD720 | Sony BDP-S480, BDP-S580 | DirecTV HR44 + 3 Genie Mini clients | Xbox One | Netgear ReadyNAS Duo

  2. #2
    Join Date
    Nov 2007
    Location
    Melbourne, Australia
    Posts
    11,616

    Default

    Thanks, Gene. Got your logs and we'll analyse them shortly and report back via email.

    Mezzmo Android: Install it on your tablet, smartphone, Android TV or Amazon Fire to browse and stream files from your Mezzmo library to all your devices. Full details at http://www.conceiva.com/products/mez...mo_android.asp
    Mezzmo for Kodi Add-on: Install it into Kodi to stream files from your Mezzmo library directly in Kodi. Full details at http://www.mezzmo.com/wiki/doku.php?...odi_user_guide
    Mezzmo for Roku App: Install it onto your Roku to stream files from your Mezzmo library. Full details at http://www.mezzmo.com/wiki/doku.php?...oku_user_guide
    Wiki: User Guides & Reference Manual at http://www.mezzmo.com/wiki
    Facebook: http://www.facebook.com/Mezzmo.DLNA.Server
    Twitter: https://twitter.com/conceiva_mezzmo
    Web: http://www.mezzmo.com

  3. #3
    Join Date
    Jul 2012
    Posts
    47

    Default

    For others reading this thread, after the second updated profile that Paul sent, I was able to play MPEG-2 MKVs fine.

    Problem solved. Thanks, Paul for the exemplary service as usual!
    Amazon FireTV | KDLINKS HD720 | Sony BDP-S480, BDP-S580 | DirecTV HR44 + 3 Genie Mini clients | Xbox One | Netgear ReadyNAS Duo

  4. #4
    Join Date
    Nov 2007
    Location
    Melbourne, Australia
    Posts
    11,616

    Default

    Glad that works . We'll include the updated device profile in the upcoming Mezzmo v4.1 release.

    Mezzmo Android: Install it on your tablet, smartphone, Android TV or Amazon Fire to browse and stream files from your Mezzmo library to all your devices. Full details at http://www.conceiva.com/products/mez...mo_android.asp
    Mezzmo for Kodi Add-on: Install it into Kodi to stream files from your Mezzmo library directly in Kodi. Full details at http://www.mezzmo.com/wiki/doku.php?...odi_user_guide
    Mezzmo for Roku App: Install it onto your Roku to stream files from your Mezzmo library. Full details at http://www.mezzmo.com/wiki/doku.php?...oku_user_guide
    Wiki: User Guides & Reference Manual at http://www.mezzmo.com/wiki
    Facebook: http://www.facebook.com/Mezzmo.DLNA.Server
    Twitter: https://twitter.com/conceiva_mezzmo
    Web: http://www.mezzmo.com

Similar Threads

  1. Sony BDP-S590 "file is corrupt or Unsupported"
    By Itchytoe in forum Mezzmo Questions and Support
    Replies: 1
    Last Post: 07-28-2014, 08:55 AM
  2. MPEG file corrupt or unsupported.
    By Rockydog1947 in forum Mezzmo Questions and Support
    Replies: 16
    Last Post: 06-17-2013, 08:35 AM
  3. Sony BDV-E580 getting "File corrupt or unsupported"
    By G.I. Jeff in forum Mezzmo Questions and Support
    Replies: 7
    Last Post: 01-29-2013, 10:50 AM
  4. Sony BDPS390 and the dreaded "The file is corrupt or unsupported" message
    By TheDT in forum Mezzmo Questions and Support
    Replies: 1
    Last Post: 12-29-2012, 02:10 PM
  5. Sony BDP 370 --> "No playable files"
    By Matt L in forum Mezzmo Questions and Support
    Replies: 1
    Last Post: 10-31-2011, 09:05 AM

Tags for this Thread

Bookmarks

Posting Permissions

  • You may not post new threads
  • You may not post replies
  • You may not post attachments
  • You may not edit your posts
  •