Results 1 to 6 of 6

Thread: New video download not showing up on TV

  1. #1
    Join Date
    Dec 2010
    Posts
    16

    Default New video download not showing up on TV

    I downloaded a couple of new TV show episodes and saved them in the folder that I have other shows in. These 2 episodes show and play OK on my computer and within the Mezzmo app, but don't show up when I browse this folder from my TV.

    I notice when I look at the file properties when in the Mezzmo app that I see an Audio tab, where the other shows that play fine on my TV show a Video tab. It looks like these 2 episodes are some how registered as audio, not video. Is that possible? Any suggestions on how to get the episodes to appear on the TV?

    Thanks.

  2. #2
    Join Date
    Nov 2007
    Location
    Melbourne, Australia
    Posts
    11,612

    Default

    Right-click on the videos in question and click 'Get FFmpeg Information'. Post that here or email it to us at support [at] conceiva [dot] com.

    Mezzmo Android: Install it on your tablet, smartphone, Android TV or Amazon Fire to browse and stream files from your Mezzmo library to all your devices. Full details at http://www.conceiva.com/products/mez...mo_android.asp
    Mezzmo for Kodi Add-on: Install it into Kodi to stream files from your Mezzmo library directly in Kodi. Full details at http://www.mezzmo.com/wiki/doku.php?...odi_user_guide
    Mezzmo for Roku App: Install it onto your Roku to stream files from your Mezzmo library. Full details at http://www.mezzmo.com/wiki/doku.php?...oku_user_guide
    Wiki: User Guides & Reference Manual at http://www.mezzmo.com/wiki
    Facebook: http://www.facebook.com/Mezzmo.DLNA.Server
    Twitter: https://twitter.com/conceiva_mezzmo
    Web: http://www.mezzmo.com

  3. #3
    Join Date
    Dec 2010
    Posts
    16

    Default

    I found that if I browsed music files on my TV, that they showed up there and I could play them, but only the sound came through.

    Here's the FFmpeg Information

    File #1
    ffmpeg version N-59793-g7a8318f Copyright (c) 2000-2014 the FFmpeg developers
    built on Jan 16 2014 16:51:32 with gcc 4.8.2 (GCC)
    configuration: --enable-memalign-hack --arch=x86_64 --target-os=mingw32 --cross-prefix=x86_64-w64-mingw32- --enable-static --disable-shared --enable-zlib --disable-postproc --prefix=/home/peter/ffmpeg/build/gpl64 --enable-libmp3lame --enable-libx264 --enable-gpl --extra-libs='-lx264 -lpthread' --enable-runtime-cpudetect --extra-cflags=-I/home/peter/cc32/include --extra-ldflags=-L/home/peter/cc64/lib --pkg-config=pkg-config --disable-w32threads --enable-libvpx --enable-libvorbis
    libavutil 52. 62.100 / 52. 62.100
    libavcodec 55. 48.101 / 55. 48.101
    libavformat 55. 23.103 / 55. 23.103
    libavdevice 55. 5.102 / 55. 5.102
    libavfilter 4. 1.100 / 4. 1.100
    libswscale 2. 5.101 / 2. 5.101
    libswresample 0. 17.104 / 0. 17.104
    Input #0, mov,mp4,m4a,3gp,3g2,mj2, from 'E:\Torrent Downloads\Outlander\Outlander.S01E07.HDTV.x264-KILLERS.mp4':
    Metadata:
    major_brand : isom
    minor_version : 1
    compatible_brands: isom
    creation_time : 2014-09-21 02:06:06
    Duration: 00:54:49.66, start: 0.000000, bitrate: 843 kb/s
    Stream #0:0(und): Audio: aac (mp4a / 0x6134706D), 48000 Hz, stereo, fltp, 139 kb/s (default)
    Metadata:
    creation_time : 2014-09-21 02:06:06
    handler_name : GPAC ISO Audio Handler
    Stream #0:1(und): Video: h264 (High) (avc1 / 0x31637661), yuv420p(tv, bt709), 720x404, 700 kb/s, 23.98 fps, 23.98 tbr, 24k tbn, 47.95 tbc (default)
    Metadata:
    creation_time : 2014-09-21 01:22:02
    handler_name : L-SMASH Video Media Handler
    At least one output file must be specified

    <MEZZMO>: Child process ended with code: 109, ExitCode=1


    ---> DB Level Info: 0, -99
    ---> Frame rate:
    ---> Aspect ratio:
    ---> Duration: 00:54:49

    File #2
    ffmpeg version N-59793-g7a8318f Copyright (c) 2000-2014 the FFmpeg developers
    built on Jan 16 2014 16:51:32 with gcc 4.8.2 (GCC)
    configuration: --enable-memalign-hack --arch=x86_64 --target-os=mingw32 --cross-prefix=x86_64-w64-mingw32- --enable-static --disable-shared --enable-zlib --disable-postproc --prefix=/home/peter/ffmpeg/build/gpl64 --enable-libmp3lame --enable-libx264 --enable-gpl --extra-libs='-lx264 -lpthread' --enable-runtime-cpudetect --extra-cflags=-I/home/peter/cc32/include --extra-ldflags=-L/home/peter/cc64/lib --pkg-config=pkg-config --disable-w32threads --enable-libvpx --enable-libvorbis
    libavutil 52. 62.100 / 52. 62.100
    libavcodec 55. 48.101 / 55. 48.101
    libavformat 55. 23.103 / 55. 23.103
    libavdevice 55. 5.102 / 55. 5.102
    libavfilter 4. 1.100 / 4. 1.100
    libswscale 2. 5.101 / 2. 5.101
    libswresample 0. 17.104 / 0. 17.104
    Input #0, mov,mp4,m4a,3gp,3g2,mj2, from 'E:\Torrent Downloads\Outlander\Outlander.S01E08.HDTV.x264-KILLERS.mp4':
    Metadata:
    major_brand : isom
    minor_version : 1
    compatible_brands: isom
    creation_time : 2014-09-28 02:00:14
    Duration: 00:55:21.02, start: 0.000000, bitrate: 1023 kb/s
    Stream #0:0(und): Audio: aac (mp4a / 0x6134706D), 48000 Hz, stereo, fltp, 146 kb/s (default)
    Metadata:
    creation_time : 2014-09-28 02:00:14
    handler_name : GPAC ISO Audio Handler
    Stream #0:1(und): Video: h264 (High) (avc1 / 0x31637661), yuv420p(tv, bt709), 720x404, 872 kb/s, 23.98 fps, 23.98 tbr, 24k tbn, 47.95 tbc (default)
    Metadata:
    creation_time : 2014-09-28 01:13:18
    handler_name : L-SMASH Video Media Handler
    At least one output file must be specified

    <MEZZMO>: Child process ended with code: 109, ExitCode=1


    ---> DB Level Info: 0, -99
    ---> Frame rate:
    ---> Aspect ratio:
    ---> Duration: 00:55:21

  4. #4
    Join Date
    Nov 2007
    Location
    Melbourne, Australia
    Posts
    11,612

    Default

    Thanks for the information. The FFmpeg information looks OK (i.e. Mezzmo should detect them as video files), so there's something strange going on in Mezzmo when you add these files. We'd like to fix the problem, but we'll need one of the files to test with. Can you upload one of them to a filesharing site such as OneDrive, Google Drive, Dropbox, mega.co.nz, etc.? Email us the download link to support [at] conceiva [dot] com and we'll test it here and fix the problem.

    Mezzmo Android: Install it on your tablet, smartphone, Android TV or Amazon Fire to browse and stream files from your Mezzmo library to all your devices. Full details at http://www.conceiva.com/products/mez...mo_android.asp
    Mezzmo for Kodi Add-on: Install it into Kodi to stream files from your Mezzmo library directly in Kodi. Full details at http://www.mezzmo.com/wiki/doku.php?...odi_user_guide
    Mezzmo for Roku App: Install it onto your Roku to stream files from your Mezzmo library. Full details at http://www.mezzmo.com/wiki/doku.php?...oku_user_guide
    Wiki: User Guides & Reference Manual at http://www.mezzmo.com/wiki
    Facebook: http://www.facebook.com/Mezzmo.DLNA.Server
    Twitter: https://twitter.com/conceiva_mezzmo
    Web: http://www.mezzmo.com

  5. #5
    Join Date
    Dec 2010
    Posts
    16

    Default

    Thanks Paul. E-mail sent with link to download file.

    Thanks again.

  6. #6
    Join Date
    Nov 2007
    Location
    Melbourne, Australia
    Posts
    11,612

    Default

    Thanks - we'll try it here and report back via email.

    Mezzmo Android: Install it on your tablet, smartphone, Android TV or Amazon Fire to browse and stream files from your Mezzmo library to all your devices. Full details at http://www.conceiva.com/products/mez...mo_android.asp
    Mezzmo for Kodi Add-on: Install it into Kodi to stream files from your Mezzmo library directly in Kodi. Full details at http://www.mezzmo.com/wiki/doku.php?...odi_user_guide
    Mezzmo for Roku App: Install it onto your Roku to stream files from your Mezzmo library. Full details at http://www.mezzmo.com/wiki/doku.php?...oku_user_guide
    Wiki: User Guides & Reference Manual at http://www.mezzmo.com/wiki
    Facebook: http://www.facebook.com/Mezzmo.DLNA.Server
    Twitter: https://twitter.com/conceiva_mezzmo
    Web: http://www.mezzmo.com

Similar Threads

  1. Video files not showing after update 3.4.2.0
    By kassysimon in forum Mezzmo Questions and Support
    Replies: 1
    Last Post: 10-06-2013, 08:50 AM
  2. Can't Download Video
    By lenardd in forum DownloadStudio Questions and Support
    Replies: 1
    Last Post: 06-04-2012, 08:13 AM
  3. V2.6 Database showing duplicate Video files under Playlists
    By Bodders-11 in forum Mezzmo Questions and Support
    Replies: 19
    Last Post: 06-01-2012, 09:28 AM
  4. Site Rules not showing correct download folder
    By sagewithin in forum DownloadStudio Questions and Support
    Replies: 1
    Last Post: 12-23-2009, 08:19 AM
  5. I can download video..but...no sound with it
    By Aquarium in forum DownloadStudio Questions and Support
    Replies: 1
    Last Post: 04-08-2009, 08:18 AM

Tags for this Thread

Bookmarks

Posting Permissions

  • You may not post new threads
  • You may not post replies
  • You may not post attachments
  • You may not edit your posts
  •