Results 1 to 7 of 7

Thread: Panasonic GT30E "to transcode or not to transcode"

  1. #1

    Default Panasonic GT30E "to transcode or not to transcode"

    Hi all,

    After Mezzmo upgrading, some file (mostly MKV) that they were not transcoded previously, now require transcoding. I suppose that someting is changed with the last Mezzmo update because if i put manually "use original file" with GT30E device, the TV reads natively the file.

    I have this problem with 4/5 files MKV already used in the past with the previous version.

    Thank you
    Freeman

  2. #2
    Join Date
    Nov 2007
    Location
    Melbourne, Australia
    Posts
    11,616

    Default

    Hi Freeman,

    Please let us know the following:

    • The device profile that is assigned to your TV in the Media Devices dialog in Mezzmo.
    • The FFmpeg information for the files that used to play fine without transcoding but are now being transcoded (when they don't need to be). Right-click on the video(s) in Mezzmo and click 'Get FFmpeg Information'.

    Mezzmo Android: Install it on your tablet, smartphone, Android TV or Amazon Fire to browse and stream files from your Mezzmo library to all your devices. Full details at http://www.conceiva.com/products/mez...mo_android.asp
    Mezzmo for Kodi Add-on: Install it into Kodi to stream files from your Mezzmo library directly in Kodi. Full details at http://www.mezzmo.com/wiki/doku.php?...odi_user_guide
    Mezzmo for Roku App: Install it onto your Roku to stream files from your Mezzmo library. Full details at http://www.mezzmo.com/wiki/doku.php?...oku_user_guide
    Wiki: User Guides & Reference Manual at http://www.mezzmo.com/wiki
    Facebook: http://www.facebook.com/Mezzmo.DLNA.Server
    Twitter: https://twitter.com/conceiva_mezzmo
    Web: http://www.mezzmo.com

  3. #3

    Default

    Quote Originally Posted by Paul View Post
    Hi Freeman,

    Please let us know the following:

    • The device profile that is assigned to your TV in the Media Devices dialog in Mezzmo.
    • The FFmpeg information for the files that used to play fine without transcoding but are now being transcoded (when they don't need to be). Right-click on the video(s) in Mezzmo and click 'Get FFmpeg Information'.
    Hi Paul,

    the device profile I'm using is "Panasonic Viera (2011 models , DTS)". Below please find the ffmpeg info requested as example, really i have another strange issue at moment, a little bit complicated to explain in English for me (really also in Italian could be complicated :-)): during the reproduction, in specific points of streaming session (always the same point), the image frame freezes and seems to be that the streaming continues in a second layer... after 2/3 seconds the streaming start again normally. For this example posted below, this problem occur in 6 points of the entire film, for other files I have a lot of freezing points.

    I've tested the files with another media player (sitecom) with a generic profile and this problem not showing up.

    Thank you as usual for your support.
    Freeman

    ffmpeg version N-66094-gbb8b752 Copyright (c) 2000-2014 the FFmpeg developers
    built on Sep 4 2014 16:23:51 with gcc 4.8.2 (GCC)
    configuration: --enable-memalign-hack --arch=x86_64 --target-os=mingw32 --cross-prefix=x86_64-w64-mingw32- --enable-static --disable-shared --enable-zlib --disable-postproc --prefix=/home/peter/ffmpeg/build/gpl64 --enable-libmp3lame --enable-libx264 --enable-gpl --extra-libs='-lx264 -lpthread' --enable-runtime-cpudetect --extra-cflags=-I/home/peter/cc32/include --extra-ldflags=-L/home/peter/cc64/lib --pkg-config=pkg-config --disable-w32threads --enable-libvpx --enable-libvorbis
    libavutil 54. 7.100 / 54. 7.100
    libavcodec 56. 1.100 / 56. 1.100
    libavformat 56. 4.100 / 56. 4.100
    libavdevice 56. 0.100 / 56. 0.100
    libavfilter 5. 0.103 / 5. 0.103
    libswscale 3. 0.100 / 3. 0.100
    libswresample 1. 1.100 / 1. 1.100
    Input #0, matroska,webm, from 'D:\ServerFolders\Video\Cartoons\FROZEN 48FPS\Frozen HFR 48fps.mkv':
    Metadata:
    encoder : libebml v1.3.0 + libmatroska v1.4.1
    creation_time : 2014-11-30 09:57:19
    Duration: 01:42:13.06, start: 0.000000, bitrate: 13056 kb/s
    Stream #0:0(eng): Video: h264 (High), yuv420p(tv, bt709), 1920x856 [SAR 1:1 DAR 240:107], 47.95 fps, 47.95 tbr, 1k tbn, 180k tbc (default)
    Metadata:
    title : by me
    _STATISTICS_WRITING_APP: mkvmerge v7.3.0 ('Nouages') 32bit built on Oct 22 2014 18:44:01
    _STATISTICS_WRITING_APP-eng: mkvmerge v7.3.0 ('Nouages') 32bit built on Oct 22 2014 18:44:01
    _STATISTICS_WRITING_DATE_UTC: 2014-11-30 09:57:19
    _STATISTICS_WRITING_DATE_UTC-eng: 2014-11-30 09:57:19
    _STATISTICS_TAGS: BPS DURATION NUMBER_OF_FRAMES NUMBER_OF_BYTES
    _STATISTICS_TAGS-eng: BPS DURATION NUMBER_OF_FRAMES NUMBER_OF_BYTES
    BPS : 8131969
    BPS-eng : 8131969
    DURATION : 01:42:13.002000000
    DURATION-eng : 01:42:13.002000000
    NUMBER_OF_FRAMES: 294090
    NUMBER_OF_FRAMES-eng: 294090
    NUMBER_OF_BYTES : 6234173394
    NUMBER_OF_BYTES-eng: 6234173394
    Stream #0:1(ita): Audio: ac3, 48000 Hz, 5.1(side), fltp, 640 kb/s
    Metadata:
    title : Ita. AC3 640 Kbps
    _STATISTICS_WRITING_APP: mkvmerge v7.3.0 ('Nouages') 32bit built on Oct 22 2014 18:44:01
    _STATISTICS_WRITING_APP-eng: mkvmerge v7.3.0 ('Nouages') 32bit built on Oct 22 2014 18:44:01
    _STATISTICS_WRITING_DATE_UTC: 2014-11-30 09:57:19
    _STATISTICS_WRITING_DATE_UTC-eng: 2014-11-30 09:57:19
    _STATISTICS_TAGS: BPS DURATION NUMBER_OF_FRAMES NUMBER_OF_BYTES
    _STATISTICS_TAGS-eng: BPS DURATION NUMBER_OF_FRAMES NUMBER_OF_BYTES
    BPS : 640000
    BPS-eng : 640000
    DURATION : 01:42:13.056000000
    DURATION-eng : 01:42:13.056000000
    NUMBER_OF_FRAMES: 191658
    NUMBER_OF_FRAMES-eng: 191658
    NUMBER_OF_BYTES : 490644480
    NUMBER_OF_BYTES-eng: 490644480
    Stream #0:2(eng): Audio: ac3, 48000 Hz, 5.1(side), fltp, 640 kb/s
    Metadata:
    title : Eng. AC3 640 Kbps
    _STATISTICS_WRITING_APP: mkvmerge v7.3.0 ('Nouages') 32bit built on Oct 22 2014 18:44:01
    _STATISTICS_WRITING_APP-eng: mkvmerge v7.3.0 ('Nouages') 32bit built on Oct 22 2014 18:44:01
    _STATISTICS_WRITING_DATE_UTC: 2014-11-30 09:57:19
    _STATISTICS_WRITING_DATE_UTC-eng: 2014-11-30 09:57:19
    _STATISTICS_TAGS: BPS DURATION NUMBER_OF_FRAMES NUMBER_OF_BYTES
    _STATISTICS_TAGS-eng: BPS DURATION NUMBER_OF_FRAMES NUMBER_OF_BYTES
    BPS : 640000
    BPS-eng : 640000
    DURATION : 01:42:13.056000000
    DURATION-eng : 01:42:13.056000000
    NUMBER_OF_FRAMES: 191658
    NUMBER_OF_FRAMES-eng: 191658
    NUMBER_OF_BYTES : 490644480
    NUMBER_OF_BYTES-eng: 490644480
    Stream #0:3(spa): Audio: ac3, 48000 Hz, 5.1(side), fltp, 384 kb/s
    Metadata:
    title : AC3 Spanish
    _STATISTICS_WRITING_APP: mkvmerge v7.3.0 ('Nouages') 32bit built on Oct 22 2014 18:44:01
    _STATISTICS_WRITING_APP-eng: mkvmerge v7.3.0 ('Nouages') 32bit built on Oct 22 2014 18:44:01
    _STATISTICS_WRITING_DATE_UTC: 2014-11-30 09:57:19
    _STATISTICS_WRITING_DATE_UTC-eng: 2014-11-30 09:57:19
    _STATISTICS_TAGS: BPS DURATION NUMBER_OF_FRAMES NUMBER_OF_BYTES
    _STATISTICS_TAGS-eng: BPS DURATION NUMBER_OF_FRAMES NUMBER_OF_BYTES
    BPS : 384000
    BPS-eng : 384000
    DURATION : 01:42:12.992000000
    DURATION-eng : 01:42:12.992000000
    NUMBER_OF_FRAMES: 191656
    NUMBER_OF_FRAMES-eng: 191656
    NUMBER_OF_BYTES : 294383616
    NUMBER_OF_BYTES-eng: 294383616
    Stream #0:4(fre): Audio: aac, 48000 Hz, stereo, fltp
    Metadata:
    title : AAC French
    _STATISTICS_WRITING_APP: mkvmerge v7.3.0 ('Nouages') 32bit built on Oct 22 2014 18:44:01
    _STATISTICS_WRITING_APP-eng: mkvmerge v7.3.0 ('Nouages') 32bit built on Oct 22 2014 18:44:01
    _STATISTICS_WRITING_DATE_UTC: 2014-11-30 09:57:19
    _STATISTICS_WRITING_DATE_UTC-eng: 2014-11-30 09:57:19
    _STATISTICS_TAGS: BPS DURATION NUMBER_OF_FRAMES NUMBER_OF_BYTES
    _STATISTICS_TAGS-eng: BPS DURATION NUMBER_OF_FRAMES NUMBER_OF_BYTES
    BPS : 127822
    BPS-eng : 127822
    DURATION : 01:42:13.055000000
    DURATION-eng : 01:42:13.055000000
    NUMBER_OF_FRAMES: 287487
    NUMBER_OF_FRAMES-eng: 287487
    NUMBER_OF_BYTES : 97992448
    NUMBER_OF_BYTES-eng: 97992448
    Stream #0:5(swe): Audio: aac, 48000 Hz, stereo, fltp
    Metadata:
    title : AAC Swedish
    _STATISTICS_WRITING_APP: mkvmerge v7.3.0 ('Nouages') 32bit built on Oct 22 2014 18:44:01
    _STATISTICS_WRITING_APP-eng: mkvmerge v7.3.0 ('Nouages') 32bit built on Oct 22 2014 18:44:01
    _STATISTICS_WRITING_DATE_UTC: 2014-11-30 09:57:19
    _STATISTICS_WRITING_DATE_UTC-eng: 2014-11-30 09:57:19
    _STATISTICS_TAGS: BPS DURATION NUMBER_OF_FRAMES NUMBER_OF_BYTES
    _STATISTICS_TAGS-eng: BPS DURATION NUMBER_OF_FRAMES NUMBER_OF_BYTES
    BPS : 94741
    BPS-eng : 94741
    DURATION : 01:42:12.053000000
    DURATION-eng : 01:42:12.053000000
    NUMBER_OF_FRAMES: 143720
    NUMBER_OF_FRAMES-eng: 143720
    NUMBER_OF_BYTES : 72619846
    NUMBER_OF_BYTES-eng: 72619846
    Stream #0:6(ita): Audio: dts (DTS), 48000 Hz, 5.1(side), fltp, 1536 kb/s
    Metadata:
    title : Ita DTS 1510 Kbps
    _STATISTICS_WRITING_APP: mkvmerge v7.3.0 ('Nouages') 32bit built on Oct 22 2014 18:44:01
    _STATISTICS_WRITING_APP-eng: mkvmerge v7.3.0 ('Nouages') 32bit built on Oct 22 2014 18:44:01
    _STATISTICS_WRITING_DATE_UTC: 2014-11-30 09:57:19
    _STATISTICS_WRITING_DATE_UTC-eng: 2014-11-30 09:57:19
    _STATISTICS_TAGS: BPS DURATION NUMBER_OF_FRAMES NUMBER_OF_BYTES
    _STATISTICS_TAGS-eng: BPS DURATION NUMBER_OF_FRAMES NUMBER_OF_BYTES
    BPS : 1509000
    BPS-eng : 1509000
    DURATION : 01:42:13.045000000
    DURATION-eng : 01:42:13.045000000
    NUMBER_OF_FRAMES: 574973
    NUMBER_OF_FRAMES-eng: 574973
    NUMBER_OF_BYTES : 1156845676
    NUMBER_OF_BYTES-eng: 1156845676
    Stream #0:7(eng): Audio: dts (DTS), 48000 Hz, 5.1(side), fltp, 1536 kb/s
    Metadata:
    title : Eng DTS 1510 Kbps
    _STATISTICS_WRITING_APP: mkvmerge v7.3.0 ('Nouages') 32bit built on Oct 22 2014 18:44:01
    _STATISTICS_WRITING_APP-eng: mkvmerge v7.3.0 ('Nouages') 32bit built on Oct 22 2014 18:44:01
    _STATISTICS_WRITING_DATE_UTC: 2014-11-30 09:57:19
    _STATISTICS_WRITING_DATE_UTC-eng: 2014-11-30 09:57:19
    _STATISTICS_TAGS: BPS DURATION NUMBER_OF_FRAMES NUMBER_OF_BYTES
    _STATISTICS_TAGS-eng: BPS DURATION NUMBER_OF_FRAMES NUMBER_OF_BYTES
    BPS : 1509002
    BPS-eng : 1509002
    DURATION : 01:42:13.045000000
    DURATION-eng : 01:42:13.045000000
    NUMBER_OF_FRAMES: 574973
    NUMBER_OF_FRAMES-eng: 574973
    NUMBER_OF_BYTES : 1156847596
    NUMBER_OF_BYTES-eng: 1156847596
    Stream #0:8(ita): Subtitle: subrip
    Metadata:
    title : Sub Ita Forced
    _STATISTICS_WRITING_APP: mkvmerge v7.3.0 ('Nouages') 32bit built on Oct 22 2014 18:44:01
    _STATISTICS_WRITING_APP-eng: mkvmerge v7.3.0 ('Nouages') 32bit built on Oct 22 2014 18:44:01
    _STATISTICS_WRITING_DATE_UTC: 2014-11-30 09:57:19
    _STATISTICS_WRITING_DATE_UTC-eng: 2014-11-30 09:57:19
    _STATISTICS_TAGS: BPS DURATION NUMBER_OF_FRAMES NUMBER_OF_BYTES
    _STATISTICS_TAGS-eng: BPS DURATION NUMBER_OF_FRAMES NUMBER_OF_BYTES
    BPS : 0
    BPS-eng : 0
    DURATION : 00:34:47.459000000
    DURATION-eng : 00:34:47.459000000
    NUMBER_OF_FRAMES: 3
    NUMBER_OF_FRAMES-eng: 3
    NUMBER_OF_BYTES : 62
    NUMBER_OF_BYTES-eng: 62
    Stream #0:9(ita): Subtitle: subrip
    Metadata:
    title : Sub Ita
    _STATISTICS_WRITING_APP: mkvmerge v7.3.0 ('Nouages') 32bit built on Oct 22 2014 18:44:01
    _STATISTICS_WRITING_APP-eng: mkvmerge v7.3.0 ('Nouages') 32bit built on Oct 22 2014 18:44:01
    _STATISTICS_WRITING_DATE_UTC: 2014-11-30 09:57:19
    _STATISTICS_WRITING_DATE_UTC-eng: 2014-11-30 09:57:19
    _STATISTICS_TAGS: BPS DURATION NUMBER_OF_FRAMES NUMBER_OF_BYTES
    _STATISTICS_TAGS-eng: BPS DURATION NUMBER_OF_FRAMES NUMBER_OF_BYTES
    BPS : 51
    BPS-eng : 51
    DURATION : 01:30:57.367000000
    DURATION-eng : 01:30:57.367000000
    NUMBER_OF_FRAMES: 1490
    NUMBER_OF_FRAMES-eng: 1490
    NUMBER_OF_BYTES : 35342
    NUMBER_OF_BYTES-eng: 35342
    Stream #0:10(eng): Subtitle: subrip
    Metadata:
    title : Sub Eng Not Hearing
    _STATISTICS_WRITING_APP: mkvmerge v7.3.0 ('Nouages') 32bit built on Oct 22 2014 18:44:01
    _STATISTICS_WRITING_APP-eng: mkvmerge v7.3.0 ('Nouages') 32bit built on Oct 22 2014 18:44:01
    _STATISTICS_WRITING_DATE_UTC: 2014-11-30 09:57:19
    _STATISTICS_WRITING_DATE_UTC-eng: 2014-11-30 09:57:19
    _STATISTICS_TAGS: BPS DURATION NUMBER_OF_FRAMES NUMBER_OF_BYTES
    _STATISTICS_TAGS-eng: BPS DURATION NUMBER_OF_FRAMES NUMBER_OF_BYTES
    BPS : 63
    BPS-eng : 63
    DURATION : 01:41:51.521000000
    DURATION-eng : 01:41:51.521000000
    NUMBER_OF_FRAMES: 1987
    NUMBER_OF_FRAMES-eng: 1987
    NUMBER_OF_BYTES : 48547
    NUMBER_OF_BYTES-eng: 48547
    Stream #0:11(jpn): Subtitle: subrip
    Metadata:
    title : Sub Japanese
    BPS : 79
    BPS-eng : 79
    DURATION : 01:32:20.254000000
    DURATION-eng : 01:32:20.254000000
    NUMBER_OF_FRAMES: 1346
    NUMBER_OF_FRAMES-eng: 1346
    NUMBER_OF_BYTES : 54874
    NUMBER_OF_BYTES-eng: 54874
    _STATISTICS_WRITING_APP: mkvmerge v7.3.0 ('Nouages') 32bit built on Oct 22 2014 18:44:01
    _STATISTICS_WRITING_APP-eng: mkvmerge v7.3.0 ('Nouages') 32bit built on Oct 22 2014 18:44:01
    _STATISTICS_WRITING_DATE_UTC: 2014-11-30 09:57:19
    _STATISTICS_WRITING_DATE_UTC-eng: 2014-11-30 09:57:19
    _STATISTICS_TAGS: BPS DURATION NUMBER_OF_FRAMES NUMBER_OF_BYTES
    _STATISTICS_TAGS-eng: BPS DURATION NUMBER_OF_FRAMES NUMBER_OF_BYTES
    Stream #0:12(swe): Subtitle: dvd_subtitle, 1280x720
    Metadata:
    title : Sub Swedish
    _STATISTICS_WRITING_APP: mkvmerge v7.3.0 ('Nouages') 32bit built on Oct 22 2014 18:44:01
    _STATISTICS_WRITING_APP-eng: mkvmerge v7.3.0 ('Nouages') 32bit built on Oct 22 2014 18:44:01
    _STATISTICS_WRITING_DATE_UTC: 2014-11-30 09:57:19
    _STATISTICS_WRITING_DATE_UTC-eng: 2014-11-30 09:57:19
    _STATISTICS_TAGS: BPS DURATION NUMBER_OF_FRAMES NUMBER_OF_BYTES
    _STATISTICS_TAGS-eng: BPS DURATION NUMBER_OF_FRAMES NUMBER_OF_BYTES
    BPS : 3187
    BPS-eng : 3187
    DURATION : 01:32:20.085000000
    DURATION-eng : 01:32:20.085000000
    NUMBER_OF_FRAMES: 961
    NUMBER_OF_FRAMES-eng: 961
    NUMBER_OF_BYTES : 2207696
    NUMBER_OF_BYTES-eng: 2207696
    Stream #0:13(nor): Subtitle: dvd_subtitle, 1280x720
    Metadata:
    title : Sub Norwegian
    _STATISTICS_WRITING_APP: mkvmerge v7.3.0 ('Nouages') 32bit built on Oct 22 2014 18:44:01
    _STATISTICS_WRITING_APP-eng: mkvmerge v7.3.0 ('Nouages') 32bit built on Oct 22 2014 18:44:01
    _STATISTICS_WRITING_DATE_UTC: 2014-11-30 09:57:19
    _STATISTICS_WRITING_DATE_UTC-eng: 2014-11-30 09:57:19
    _STATISTICS_TAGS: BPS DURATION NUMBER_OF_FRAMES NUMBER_OF_BYTES
    _STATISTICS_TAGS-eng: BPS DURATION NUMBER_OF_FRAMES NUMBER_OF_BYTES
    BPS : 3706
    BPS-eng : 3706
    DURATION : 01:32:18.010000000
    DURATION-eng : 01:32:18.010000000
    NUMBER_OF_FRAMES: 1501
    NUMBER_OF_FRAMES-eng: 1501
    NUMBER_OF_BYTES : 2565525
    NUMBER_OF_BYTES-eng: 2565525
    Stream #0:14(dan): Subtitle: dvd_subtitle, 1280x720
    Metadata:
    title : Sub Danish
    _STATISTICS_WRITING_APP: mkvmerge v7.3.0 ('Nouages') 32bit built on Oct 22 2014 18:44:01
    _STATISTICS_WRITING_APP-eng: mkvmerge v7.3.0 ('Nouages') 32bit built on Oct 22 2014 18:44:01
    _STATISTICS_WRITING_DATE_UTC: 2014-11-30 09:57:19
    _STATISTICS_WRITING_DATE_UTC-eng: 2014-11-30 09:57:19
    _STATISTICS_TAGS: BPS DURATION NUMBER_OF_FRAMES NUMBER_OF_BYTES
    _STATISTICS_TAGS-eng: BPS DURATION NUMBER_OF_FRAMES NUMBER_OF_BYTES
    BPS : 3689
    BPS-eng : 3689
    DURATION : 01:32:18.261000000
    DURATION-eng : 01:32:18.261000000
    NUMBER_OF_FRAMES: 1436
    NUMBER_OF_FRAMES-eng: 1436
    NUMBER_OF_BYTES : 2554175
    NUMBER_OF_BYTES-eng: 2554175
    Stream #0:15(fin): Subtitle: dvd_subtitle, 1280x720
    Metadata:
    title : Sub Finnish
    _STATISTICS_WRITING_APP: mkvmerge v7.3.0 ('Nouages') 32bit built on Oct 22 2014 18:44:01
    _STATISTICS_WRITING_APP-eng: mkvmerge v7.3.0 ('Nouages') 32bit built on Oct 22 2014 18:44:01
    _STATISTICS_WRITING_DATE_UTC: 2014-11-30 09:57:19
    _STATISTICS_WRITING_DATE_UTC-eng: 2014-11-30 09:57:19
    _STATISTICS_TAGS: BPS DURATION NUMBER_OF_FRAMES NUMBER_OF_BYTES
    _STATISTICS_TAGS-eng: BPS DURATION NUMBER_OF_FRAMES NUMBER_OF_BYTES
    BPS : 3496
    BPS-eng : 3496
    DURATION : 01:32:18.157000000
    DURATION-eng : 01:32:18.157000000
    NUMBER_OF_FRAMES: 1509
    NUMBER_OF_FRAMES-eng: 1509
    NUMBER_OF_BYTES : 2420317
    NUMBER_OF_BYTES-eng: 2420317
    At least one output file must be specified

    <MEZZMO>: Child process ended with code: 109, ExitCode=1


    ---> DB Level Info: 41, 100
    ---> Frame rate: 47,95
    ---> Aspect ratio: 240:107 PAR=1:1
    ---> Duration: 01:42:13

  4. #4

    Default

    Quote Originally Posted by freeman View Post
    Hi Paul,

    the device profile I'm using is "Panasonic Viera (2011 models , DTS)". Below please find the ffmpeg info requested as example, really i have another strange issue at moment, a little bit complicated to explain in English for me (really also in Italian could be complicated :-)): during the reproduction, in specific points of streaming session (always the same point), the image frame freezes and seems to be that the streaming continues in a second layer... after 2/3 seconds the streaming start again normally. For this example posted below, this problem occur in 6 points of the entire film, for other files I have a lot of freezing points.

    I've tested the files with another media player (sitecom) with a generic profile and this problem not showing up.

    Thank you as usual for your support.
    Freeman

    ffmpeg version N-66094-gbb8b752 Copyright (c) 2000-2014 the FFmpeg developers
    built on Sep 4 2014 16:23:51 with gcc 4.8.2 (GCC)
    configuration: --enable-memalign-hack --arch=x86_64 --target-os=mingw32 --cross-prefix=x86_64-w64-mingw32- --enable-static --disable-shared --enable-zlib --disable-postproc --prefix=/home/peter/ffmpeg/build/gpl64 --enable-libmp3lame --enable-libx264 --enable-gpl --extra-libs='-lx264 -lpthread' --enable-runtime-cpudetect --extra-cflags=-I/home/peter/cc32/include --extra-ldflags=-L/home/peter/cc64/lib --pkg-config=pkg-config --disable-w32threads --enable-libvpx --enable-libvorbis
    libavutil 54. 7.100 / 54. 7.100
    libavcodec 56. 1.100 / 56. 1.100
    libavformat 56. 4.100 / 56. 4.100
    libavdevice 56. 0.100 / 56. 0.100
    libavfilter 5. 0.103 / 5. 0.103
    libswscale 3. 0.100 / 3. 0.100
    libswresample 1. 1.100 / 1. 1.100
    Input #0, matroska,webm, from 'D:\ServerFolders\Video\Cartoons\FROZEN 48FPS\Frozen HFR 48fps.mkv':
    Metadata:
    encoder : libebml v1.3.0 + libmatroska v1.4.1
    creation_time : 2014-11-30 09:57:19
    Duration: 01:42:13.06, start: 0.000000, bitrate: 13056 kb/s
    Stream #0:0(eng): Video: h264 (High), yuv420p(tv, bt709), 1920x856 [SAR 1:1 DAR 240:107], 47.95 fps, 47.95 tbr, 1k tbn, 180k tbc (default)
    Metadata:
    title : by me
    _STATISTICS_WRITING_APP: mkvmerge v7.3.0 ('Nouages') 32bit built on Oct 22 2014 18:44:01
    _STATISTICS_WRITING_APP-eng: mkvmerge v7.3.0 ('Nouages') 32bit built on Oct 22 2014 18:44:01
    _STATISTICS_WRITING_DATE_UTC: 2014-11-30 09:57:19
    _STATISTICS_WRITING_DATE_UTC-eng: 2014-11-30 09:57:19
    _STATISTICS_TAGS: BPS DURATION NUMBER_OF_FRAMES NUMBER_OF_BYTES
    _STATISTICS_TAGS-eng: BPS DURATION NUMBER_OF_FRAMES NUMBER_OF_BYTES
    BPS : 8131969
    BPS-eng : 8131969
    DURATION : 01:42:13.002000000
    DURATION-eng : 01:42:13.002000000
    NUMBER_OF_FRAMES: 294090
    NUMBER_OF_FRAMES-eng: 294090
    NUMBER_OF_BYTES : 6234173394
    NUMBER_OF_BYTES-eng: 6234173394
    Stream #0:1(ita): Audio: ac3, 48000 Hz, 5.1(side), fltp, 640 kb/s
    Metadata:
    title : Ita. AC3 640 Kbps
    _STATISTICS_WRITING_APP: mkvmerge v7.3.0 ('Nouages') 32bit built on Oct 22 2014 18:44:01
    _STATISTICS_WRITING_APP-eng: mkvmerge v7.3.0 ('Nouages') 32bit built on Oct 22 2014 18:44:01
    _STATISTICS_WRITING_DATE_UTC: 2014-11-30 09:57:19
    _STATISTICS_WRITING_DATE_UTC-eng: 2014-11-30 09:57:19
    _STATISTICS_TAGS: BPS DURATION NUMBER_OF_FRAMES NUMBER_OF_BYTES
    _STATISTICS_TAGS-eng: BPS DURATION NUMBER_OF_FRAMES NUMBER_OF_BYTES
    BPS : 640000
    BPS-eng : 640000
    DURATION : 01:42:13.056000000
    DURATION-eng : 01:42:13.056000000
    NUMBER_OF_FRAMES: 191658
    NUMBER_OF_FRAMES-eng: 191658
    NUMBER_OF_BYTES : 490644480
    NUMBER_OF_BYTES-eng: 490644480
    Stream #0:2(eng): Audio: ac3, 48000 Hz, 5.1(side), fltp, 640 kb/s
    Metadata:
    title : Eng. AC3 640 Kbps
    _STATISTICS_WRITING_APP: mkvmerge v7.3.0 ('Nouages') 32bit built on Oct 22 2014 18:44:01
    _STATISTICS_WRITING_APP-eng: mkvmerge v7.3.0 ('Nouages') 32bit built on Oct 22 2014 18:44:01
    _STATISTICS_WRITING_DATE_UTC: 2014-11-30 09:57:19
    _STATISTICS_WRITING_DATE_UTC-eng: 2014-11-30 09:57:19
    _STATISTICS_TAGS: BPS DURATION NUMBER_OF_FRAMES NUMBER_OF_BYTES
    _STATISTICS_TAGS-eng: BPS DURATION NUMBER_OF_FRAMES NUMBER_OF_BYTES
    BPS : 640000
    BPS-eng : 640000
    DURATION : 01:42:13.056000000
    DURATION-eng : 01:42:13.056000000
    NUMBER_OF_FRAMES: 191658
    NUMBER_OF_FRAMES-eng: 191658
    NUMBER_OF_BYTES : 490644480
    NUMBER_OF_BYTES-eng: 490644480
    Stream #0:3(spa): Audio: ac3, 48000 Hz, 5.1(side), fltp, 384 kb/s
    Metadata:
    title : AC3 Spanish
    _STATISTICS_WRITING_APP: mkvmerge v7.3.0 ('Nouages') 32bit built on Oct 22 2014 18:44:01
    _STATISTICS_WRITING_APP-eng: mkvmerge v7.3.0 ('Nouages') 32bit built on Oct 22 2014 18:44:01
    _STATISTICS_WRITING_DATE_UTC: 2014-11-30 09:57:19
    _STATISTICS_WRITING_DATE_UTC-eng: 2014-11-30 09:57:19
    _STATISTICS_TAGS: BPS DURATION NUMBER_OF_FRAMES NUMBER_OF_BYTES
    _STATISTICS_TAGS-eng: BPS DURATION NUMBER_OF_FRAMES NUMBER_OF_BYTES
    BPS : 384000
    BPS-eng : 384000
    DURATION : 01:42:12.992000000
    DURATION-eng : 01:42:12.992000000
    NUMBER_OF_FRAMES: 191656
    NUMBER_OF_FRAMES-eng: 191656
    NUMBER_OF_BYTES : 294383616
    NUMBER_OF_BYTES-eng: 294383616
    Stream #0:4(fre): Audio: aac, 48000 Hz, stereo, fltp
    Metadata:
    title : AAC French
    _STATISTICS_WRITING_APP: mkvmerge v7.3.0 ('Nouages') 32bit built on Oct 22 2014 18:44:01
    _STATISTICS_WRITING_APP-eng: mkvmerge v7.3.0 ('Nouages') 32bit built on Oct 22 2014 18:44:01
    _STATISTICS_WRITING_DATE_UTC: 2014-11-30 09:57:19
    _STATISTICS_WRITING_DATE_UTC-eng: 2014-11-30 09:57:19
    _STATISTICS_TAGS: BPS DURATION NUMBER_OF_FRAMES NUMBER_OF_BYTES
    _STATISTICS_TAGS-eng: BPS DURATION NUMBER_OF_FRAMES NUMBER_OF_BYTES
    BPS : 127822
    BPS-eng : 127822
    DURATION : 01:42:13.055000000
    DURATION-eng : 01:42:13.055000000
    NUMBER_OF_FRAMES: 287487
    NUMBER_OF_FRAMES-eng: 287487
    NUMBER_OF_BYTES : 97992448
    NUMBER_OF_BYTES-eng: 97992448
    Stream #0:5(swe): Audio: aac, 48000 Hz, stereo, fltp
    Metadata:
    title : AAC Swedish
    _STATISTICS_WRITING_APP: mkvmerge v7.3.0 ('Nouages') 32bit built on Oct 22 2014 18:44:01
    _STATISTICS_WRITING_APP-eng: mkvmerge v7.3.0 ('Nouages') 32bit built on Oct 22 2014 18:44:01
    _STATISTICS_WRITING_DATE_UTC: 2014-11-30 09:57:19
    _STATISTICS_WRITING_DATE_UTC-eng: 2014-11-30 09:57:19
    _STATISTICS_TAGS: BPS DURATION NUMBER_OF_FRAMES NUMBER_OF_BYTES
    _STATISTICS_TAGS-eng: BPS DURATION NUMBER_OF_FRAMES NUMBER_OF_BYTES
    BPS : 94741
    BPS-eng : 94741
    DURATION : 01:42:12.053000000
    DURATION-eng : 01:42:12.053000000
    NUMBER_OF_FRAMES: 143720
    NUMBER_OF_FRAMES-eng: 143720
    NUMBER_OF_BYTES : 72619846
    NUMBER_OF_BYTES-eng: 72619846
    Stream #0:6(ita): Audio: dts (DTS), 48000 Hz, 5.1(side), fltp, 1536 kb/s
    Metadata:
    title : Ita DTS 1510 Kbps
    _STATISTICS_WRITING_APP: mkvmerge v7.3.0 ('Nouages') 32bit built on Oct 22 2014 18:44:01
    _STATISTICS_WRITING_APP-eng: mkvmerge v7.3.0 ('Nouages') 32bit built on Oct 22 2014 18:44:01
    _STATISTICS_WRITING_DATE_UTC: 2014-11-30 09:57:19
    _STATISTICS_WRITING_DATE_UTC-eng: 2014-11-30 09:57:19
    _STATISTICS_TAGS: BPS DURATION NUMBER_OF_FRAMES NUMBER_OF_BYTES
    _STATISTICS_TAGS-eng: BPS DURATION NUMBER_OF_FRAMES NUMBER_OF_BYTES
    BPS : 1509000
    BPS-eng : 1509000
    DURATION : 01:42:13.045000000
    DURATION-eng : 01:42:13.045000000
    NUMBER_OF_FRAMES: 574973
    NUMBER_OF_FRAMES-eng: 574973
    NUMBER_OF_BYTES : 1156845676
    NUMBER_OF_BYTES-eng: 1156845676
    Stream #0:7(eng): Audio: dts (DTS), 48000 Hz, 5.1(side), fltp, 1536 kb/s
    Metadata:
    title : Eng DTS 1510 Kbps
    _STATISTICS_WRITING_APP: mkvmerge v7.3.0 ('Nouages') 32bit built on Oct 22 2014 18:44:01
    _STATISTICS_WRITING_APP-eng: mkvmerge v7.3.0 ('Nouages') 32bit built on Oct 22 2014 18:44:01
    _STATISTICS_WRITING_DATE_UTC: 2014-11-30 09:57:19
    _STATISTICS_WRITING_DATE_UTC-eng: 2014-11-30 09:57:19
    _STATISTICS_TAGS: BPS DURATION NUMBER_OF_FRAMES NUMBER_OF_BYTES
    _STATISTICS_TAGS-eng: BPS DURATION NUMBER_OF_FRAMES NUMBER_OF_BYTES
    BPS : 1509002
    BPS-eng : 1509002
    DURATION : 01:42:13.045000000
    DURATION-eng : 01:42:13.045000000
    NUMBER_OF_FRAMES: 574973
    NUMBER_OF_FRAMES-eng: 574973
    NUMBER_OF_BYTES : 1156847596
    NUMBER_OF_BYTES-eng: 1156847596
    Stream #0:8(ita): Subtitle: subrip
    Metadata:
    title : Sub Ita Forced
    _STATISTICS_WRITING_APP: mkvmerge v7.3.0 ('Nouages') 32bit built on Oct 22 2014 18:44:01
    _STATISTICS_WRITING_APP-eng: mkvmerge v7.3.0 ('Nouages') 32bit built on Oct 22 2014 18:44:01
    _STATISTICS_WRITING_DATE_UTC: 2014-11-30 09:57:19
    _STATISTICS_WRITING_DATE_UTC-eng: 2014-11-30 09:57:19
    _STATISTICS_TAGS: BPS DURATION NUMBER_OF_FRAMES NUMBER_OF_BYTES
    _STATISTICS_TAGS-eng: BPS DURATION NUMBER_OF_FRAMES NUMBER_OF_BYTES
    BPS : 0
    BPS-eng : 0
    DURATION : 00:34:47.459000000
    DURATION-eng : 00:34:47.459000000
    NUMBER_OF_FRAMES: 3
    NUMBER_OF_FRAMES-eng: 3
    NUMBER_OF_BYTES : 62
    NUMBER_OF_BYTES-eng: 62
    Stream #0:9(ita): Subtitle: subrip
    Metadata:
    title : Sub Ita
    _STATISTICS_WRITING_APP: mkvmerge v7.3.0 ('Nouages') 32bit built on Oct 22 2014 18:44:01
    _STATISTICS_WRITING_APP-eng: mkvmerge v7.3.0 ('Nouages') 32bit built on Oct 22 2014 18:44:01
    _STATISTICS_WRITING_DATE_UTC: 2014-11-30 09:57:19
    _STATISTICS_WRITING_DATE_UTC-eng: 2014-11-30 09:57:19
    _STATISTICS_TAGS: BPS DURATION NUMBER_OF_FRAMES NUMBER_OF_BYTES
    _STATISTICS_TAGS-eng: BPS DURATION NUMBER_OF_FRAMES NUMBER_OF_BYTES
    BPS : 51
    BPS-eng : 51
    DURATION : 01:30:57.367000000
    DURATION-eng : 01:30:57.367000000
    NUMBER_OF_FRAMES: 1490
    NUMBER_OF_FRAMES-eng: 1490
    NUMBER_OF_BYTES : 35342
    NUMBER_OF_BYTES-eng: 35342
    Stream #0:10(eng): Subtitle: subrip
    Metadata:
    title : Sub Eng Not Hearing
    _STATISTICS_WRITING_APP: mkvmerge v7.3.0 ('Nouages') 32bit built on Oct 22 2014 18:44:01
    _STATISTICS_WRITING_APP-eng: mkvmerge v7.3.0 ('Nouages') 32bit built on Oct 22 2014 18:44:01
    _STATISTICS_WRITING_DATE_UTC: 2014-11-30 09:57:19
    _STATISTICS_WRITING_DATE_UTC-eng: 2014-11-30 09:57:19
    _STATISTICS_TAGS: BPS DURATION NUMBER_OF_FRAMES NUMBER_OF_BYTES
    _STATISTICS_TAGS-eng: BPS DURATION NUMBER_OF_FRAMES NUMBER_OF_BYTES
    BPS : 63
    BPS-eng : 63
    DURATION : 01:41:51.521000000
    DURATION-eng : 01:41:51.521000000
    NUMBER_OF_FRAMES: 1987
    NUMBER_OF_FRAMES-eng: 1987
    NUMBER_OF_BYTES : 48547
    NUMBER_OF_BYTES-eng: 48547
    Stream #0:11(jpn): Subtitle: subrip
    Metadata:
    title : Sub Japanese
    BPS : 79
    BPS-eng : 79
    DURATION : 01:32:20.254000000
    DURATION-eng : 01:32:20.254000000
    NUMBER_OF_FRAMES: 1346
    NUMBER_OF_FRAMES-eng: 1346
    NUMBER_OF_BYTES : 54874
    NUMBER_OF_BYTES-eng: 54874
    _STATISTICS_WRITING_APP: mkvmerge v7.3.0 ('Nouages') 32bit built on Oct 22 2014 18:44:01
    _STATISTICS_WRITING_APP-eng: mkvmerge v7.3.0 ('Nouages') 32bit built on Oct 22 2014 18:44:01
    _STATISTICS_WRITING_DATE_UTC: 2014-11-30 09:57:19
    _STATISTICS_WRITING_DATE_UTC-eng: 2014-11-30 09:57:19
    _STATISTICS_TAGS: BPS DURATION NUMBER_OF_FRAMES NUMBER_OF_BYTES
    _STATISTICS_TAGS-eng: BPS DURATION NUMBER_OF_FRAMES NUMBER_OF_BYTES
    Stream #0:12(swe): Subtitle: dvd_subtitle, 1280x720
    Metadata:
    title : Sub Swedish
    _STATISTICS_WRITING_APP: mkvmerge v7.3.0 ('Nouages') 32bit built on Oct 22 2014 18:44:01
    _STATISTICS_WRITING_APP-eng: mkvmerge v7.3.0 ('Nouages') 32bit built on Oct 22 2014 18:44:01
    _STATISTICS_WRITING_DATE_UTC: 2014-11-30 09:57:19
    _STATISTICS_WRITING_DATE_UTC-eng: 2014-11-30 09:57:19
    _STATISTICS_TAGS: BPS DURATION NUMBER_OF_FRAMES NUMBER_OF_BYTES
    _STATISTICS_TAGS-eng: BPS DURATION NUMBER_OF_FRAMES NUMBER_OF_BYTES
    BPS : 3187
    BPS-eng : 3187
    DURATION : 01:32:20.085000000
    DURATION-eng : 01:32:20.085000000
    NUMBER_OF_FRAMES: 961
    NUMBER_OF_FRAMES-eng: 961
    NUMBER_OF_BYTES : 2207696
    NUMBER_OF_BYTES-eng: 2207696
    Stream #0:13(nor): Subtitle: dvd_subtitle, 1280x720
    Metadata:
    title : Sub Norwegian
    _STATISTICS_WRITING_APP: mkvmerge v7.3.0 ('Nouages') 32bit built on Oct 22 2014 18:44:01
    _STATISTICS_WRITING_APP-eng: mkvmerge v7.3.0 ('Nouages') 32bit built on Oct 22 2014 18:44:01
    _STATISTICS_WRITING_DATE_UTC: 2014-11-30 09:57:19
    _STATISTICS_WRITING_DATE_UTC-eng: 2014-11-30 09:57:19
    _STATISTICS_TAGS: BPS DURATION NUMBER_OF_FRAMES NUMBER_OF_BYTES
    _STATISTICS_TAGS-eng: BPS DURATION NUMBER_OF_FRAMES NUMBER_OF_BYTES
    BPS : 3706
    BPS-eng : 3706
    DURATION : 01:32:18.010000000
    DURATION-eng : 01:32:18.010000000
    NUMBER_OF_FRAMES: 1501
    NUMBER_OF_FRAMES-eng: 1501
    NUMBER_OF_BYTES : 2565525
    NUMBER_OF_BYTES-eng: 2565525
    Stream #0:14(dan): Subtitle: dvd_subtitle, 1280x720
    Metadata:
    title : Sub Danish
    _STATISTICS_WRITING_APP: mkvmerge v7.3.0 ('Nouages') 32bit built on Oct 22 2014 18:44:01
    _STATISTICS_WRITING_APP-eng: mkvmerge v7.3.0 ('Nouages') 32bit built on Oct 22 2014 18:44:01
    _STATISTICS_WRITING_DATE_UTC: 2014-11-30 09:57:19
    _STATISTICS_WRITING_DATE_UTC-eng: 2014-11-30 09:57:19
    _STATISTICS_TAGS: BPS DURATION NUMBER_OF_FRAMES NUMBER_OF_BYTES
    _STATISTICS_TAGS-eng: BPS DURATION NUMBER_OF_FRAMES NUMBER_OF_BYTES
    BPS : 3689
    BPS-eng : 3689
    DURATION : 01:32:18.261000000
    DURATION-eng : 01:32:18.261000000
    NUMBER_OF_FRAMES: 1436
    NUMBER_OF_FRAMES-eng: 1436
    NUMBER_OF_BYTES : 2554175
    NUMBER_OF_BYTES-eng: 2554175
    Stream #0:15(fin): Subtitle: dvd_subtitle, 1280x720
    Metadata:
    title : Sub Finnish
    _STATISTICS_WRITING_APP: mkvmerge v7.3.0 ('Nouages') 32bit built on Oct 22 2014 18:44:01
    _STATISTICS_WRITING_APP-eng: mkvmerge v7.3.0 ('Nouages') 32bit built on Oct 22 2014 18:44:01
    _STATISTICS_WRITING_DATE_UTC: 2014-11-30 09:57:19
    _STATISTICS_WRITING_DATE_UTC-eng: 2014-11-30 09:57:19
    _STATISTICS_TAGS: BPS DURATION NUMBER_OF_FRAMES NUMBER_OF_BYTES
    _STATISTICS_TAGS-eng: BPS DURATION NUMBER_OF_FRAMES NUMBER_OF_BYTES
    BPS : 3496
    BPS-eng : 3496
    DURATION : 01:32:18.157000000
    DURATION-eng : 01:32:18.157000000
    NUMBER_OF_FRAMES: 1509
    NUMBER_OF_FRAMES-eng: 1509
    NUMBER_OF_BYTES : 2420317
    NUMBER_OF_BYTES-eng: 2420317
    At least one output file must be specified

    <MEZZMO>: Child process ended with code: 109, ExitCode=1


    ---> DB Level Info: 41, 100
    ---> Frame rate: 47,95
    ---> Aspect ratio: 240:107 PAR=1:1
    ---> Duration: 01:42:13
    Hi Paul,

    any update about the ffmpeg info? Now i'm using "Generic DLNA device" and the files are natively played on my TV, but in case of transcoding is really needed, the streaming doesn't start.

    thank you
    Freeman

  5. #5
    Join Date
    Nov 2007
    Location
    Melbourne, Australia
    Posts
    11,616

    Default

    Sorry for the delay, Freeman. Email us at support [at] conceiva [dot] com and we'll provide you with a tweaked device profile that should fix the problem.

    Mezzmo Android: Install it on your tablet, smartphone, Android TV or Amazon Fire to browse and stream files from your Mezzmo library to all your devices. Full details at http://www.conceiva.com/products/mez...mo_android.asp
    Mezzmo for Kodi Add-on: Install it into Kodi to stream files from your Mezzmo library directly in Kodi. Full details at http://www.mezzmo.com/wiki/doku.php?...odi_user_guide
    Mezzmo for Roku App: Install it onto your Roku to stream files from your Mezzmo library. Full details at http://www.mezzmo.com/wiki/doku.php?...oku_user_guide
    Wiki: User Guides & Reference Manual at http://www.mezzmo.com/wiki
    Facebook: http://www.facebook.com/Mezzmo.DLNA.Server
    Twitter: https://twitter.com/conceiva_mezzmo
    Web: http://www.mezzmo.com

  6. #6

    Default

    Quote Originally Posted by Paul View Post
    Sorry for the delay, Freeman. Email us at support [at] conceiva [dot] com and we'll provide you with a tweaked device profile that should fix the problem.
    Hi Paul,

    i'm trying to reply about the new profile at support [at] conceiva [dot] com but the email still pending and i'm getting some mail errors from conceiva.com ("Delivery to the following recipient has been delayed: support [at] conceiva [dot] com).

    thank you
    Freeman

  7. #7
    Join Date
    Nov 2007
    Location
    Melbourne, Australia
    Posts
    11,616

    Default

    OK - PM me via this forum and include your email address in the PM. Also, in your PM, include the email bounce back message you are receiving so we can find out what's going wrong.

    Mezzmo Android: Install it on your tablet, smartphone, Android TV or Amazon Fire to browse and stream files from your Mezzmo library to all your devices. Full details at http://www.conceiva.com/products/mez...mo_android.asp
    Mezzmo for Kodi Add-on: Install it into Kodi to stream files from your Mezzmo library directly in Kodi. Full details at http://www.mezzmo.com/wiki/doku.php?...odi_user_guide
    Mezzmo for Roku App: Install it onto your Roku to stream files from your Mezzmo library. Full details at http://www.mezzmo.com/wiki/doku.php?...oku_user_guide
    Wiki: User Guides & Reference Manual at http://www.mezzmo.com/wiki
    Facebook: http://www.facebook.com/Mezzmo.DLNA.Server
    Twitter: https://twitter.com/conceiva_mezzmo
    Web: http://www.mezzmo.com

Similar Threads

  1. File "Title information" being displayed rather than file "Names"
    By lonewulf in forum Mezzmo Questions and Support
    Replies: 15
    Last Post: 06-22-2014, 08:17 PM
  2. Add "Does not start with "The *"" to Smart Playlist
    By Lifferds in forum Mezzmo Wish List and Feedback
    Replies: 4
    Last Post: 06-25-2013, 09:57 AM
  3. How to Setup Transcoding to NOT Transcode On-The-Fly but ONLY Transcode Manuallly?
    By stevefoobar in forum Mezzmo Questions and Support
    Replies: 6
    Last Post: 10-22-2012, 05:03 PM
  4. Transcoding: list devices and transcode state - option to pre-transcode
    By Dillster in forum Mezzmo Wish List and Feedback
    Replies: 13
    Last Post: 01-06-2012, 05:30 PM
  5. Panasonic g20 "cant read file"
    By cheeseball in forum Mezzmo Questions and Support
    Replies: 3
    Last Post: 12-08-2010, 10:05 AM

Tags for this Thread

Bookmarks

Posting Permissions

  • You may not post new threads
  • You may not post replies
  • You may not post attachments
  • You may not edit your posts
  •