Results 1 to 6 of 6

Thread: DTS pass-through Sharp Aquos LC70SQ15U

  1. #1

    Default DTS pass-through Sharp Aquos LC70SQ15U

    I am attempting to get Mezzmo to transcode the video of a file, but to leave the DTS audio track alone. I would like the audio to pass through the TV to my Yamaha yas-201 soundbar. From what I've read I need to edit the DLNA profile to allow this. I have not been able to figure out what to add to SharpAquos2014.prf to get this working.

    Here is the ffmpeg info of the file I'm attempting this with:

    ffmpeg version N-66094-gbb8b752 Copyright (c) 2000-2014 the FFmpeg developers
    built on Sep 4 2014 16:23:51 with gcc 4.8.2 (GCC)
    configuration: --enable-memalign-hack --arch=x86_64 --target-os=mingw32 --cross-prefix=x86_64-w64-mingw32- --enable-static --disable-shared --enable-zlib --disable-postproc --prefix=/home/peter/ffmpeg/build/gpl64 --enable-libmp3lame --enable-libx264 --enable-gpl --extra-libs='-lx264 -lpthread' --enable-runtime-cpudetect --extra-cflags=-I/home/peter/cc32/include --extra-ldflags=-L/home/peter/cc64/lib --pkg-config=pkg-config --disable-w32threads --enable-libvpx --enable-libvorbis
    libavutil 54. 7.100 / 54. 7.100
    libavcodec 56. 1.100 / 56. 1.100
    libavformat 56. 4.100 / 56. 4.100
    libavdevice 56. 0.100 / 56. 0.100
    libavfilter 5. 0.103 / 5. 0.103
    libswscale 3. 0.100 / 3. 0.100
    libswresample 1. 1.100 / 1. 1.100
    Input #0, matroska,webm, from 'C:\Users\Karl\Downloads\Media\Movies\Gone.Girl.20 14.mkv':
    Metadata:
    encoder : libebml v1.3.0 + libmatroska v1.4.1
    creation_time : 2014-12-27 17:41:35
    Duration: 02:29:01.98, start: 0.000000, bitrate: 11794 kb/s
    Chapter #0.0: start 0.000000, end 207.958000
    Metadata:
    title : 00:00:00.000
    Chapter #0.1: start 207.958000, end 417.834000
    Metadata:
    title : 00:03:27.958
    Chapter #0.2: start 417.834000, end 499.541000
    Metadata:
    title : 00:06:57.834
    Chapter #0.3: start 499.541000, end 718.593000
    Metadata:
    title : 00:08:19.541
    Chapter #0.4: start 718.593000, end 901.484000
    Metadata:
    title : 00:11:58.593
    Chapter #0.5: start 901.484000, end 1093.509000
    Metadata:
    title : 00:15:01.484
    Chapter #0.6: start 1093.509000, end 1196.737000
    Metadata:
    title : 00:18:13.509
    Chapter #0.7: start 1196.737000, end 1303.093000
    Metadata:
    title : 00:19:56.737
    Chapter #0.8: start 1303.093000, end 1433.849000
    Metadata:
    title : 00:21:43.093
    Chapter #0.9: start 1433.849000, end 1714.880000
    Metadata:
    title : 00:23:53.849
    Chapter #0.10: start 1714.880000, end 1892.516000
    Metadata:
    title : 00:28:34.880
    Chapter #0.11: start 1892.516000, end 2079.077000
    Metadata:
    title : 00:31:32.516
    Chapter #0.12: start 2079.077000, end 2451.199000
    Metadata:
    title : 00:34:39.077
    Chapter #0.13: start 2451.199000, end 2677.383000
    Metadata:
    title : 00:40:51.199
    Chapter #0.14: start 2677.383000, end 2817.815000
    Metadata:
    title : 00:44:37.383
    Chapter #0.15: start 2817.815000, end 2959.707000
    Metadata:
    title : 00:46:57.815
    Chapter #0.16: start 2959.707000, end 3253.333000
    Metadata:
    title : 00:49:19.707
    Chapter #0.17: start 3253.333000, end 3606.686000
    Metadata:
    title : 00:54:13.333
    Chapter #0.18: start 3606.686000, end 3796.209000
    Metadata:
    title : 01:00:06.686
    Chapter #0.19: start 3796.209000, end 3968.715000
    Metadata:
    title : 01:03:16.209
    Chapter #0.20: start 3968.715000, end 4376.998000
    Metadata:
    title : 01:06:08.715
    Chapter #0.21: start 4376.998000, end 4513.008000
    Metadata:
    title : 01:12:56.998
    Chapter #0.22: start 4513.008000, end 4794.456000
    Metadata:
    title : 01:15:13.008
    Chapter #0.23: start 4794.456000, end 4916.120000
    Metadata:
    title : 01:19:54.456
    Chapter #0.24: start 4916.120000, end 5244.156000
    Metadata:
    title : 01:21:56.120
    Chapter #0.25: start 5244.156000, end 5292.537000
    Metadata:
    title : 01:27:24.156
    Chapter #0.26: start 5292.537000, end 5608.561000
    Metadata:
    title : 01:28:12.537
    Chapter #0.27: start 5608.561000, end 5974.510000
    Metadata:
    title : 01:33:28.561
    Chapter #0.28: start 5974.510000, end 6386.714000
    Metadata:
    title : 01:39:34.510
    Chapter #0.29: start 6386.714000, end 6646.515000
    Metadata:
    title : 01:46:26.714
    Chapter #0.30: start 6646.515000, end 7000.619000
    Metadata:
    title : 01:50:46.515
    Chapter #0.31: start 7000.619000, end 7146.097000
    Metadata:
    title : 01:56:40.619
    Chapter #0.32: start 7146.097000, end 7343.127000
    Metadata:
    title : 01:59:06.097
    Chapter #0.33: start 7343.127000, end 7535.069000
    Metadata:
    title : 02:02:23.127
    Chapter #0.34: start 7535.069000, end 7950.818000
    Metadata:
    title : 02:05:35.069
    Chapter #0.35: start 7950.818000, end 8172.790000
    Metadata:
    title : 02:12:30.818
    Chapter #0.36: start 8172.790000, end 8396.930000
    Metadata:
    title : 02:16:12.790
    Chapter #0.37: start 8396.930000, end 8562.304000
    Metadata:
    title : 02:19:56.930
    Chapter #0.38: start 8562.304000, end 8655.647000
    Metadata:
    title : 02:22:42.304
    Chapter #0.39: start 8655.647000, end 8941.984000
    Metadata:
    title : 02:24:15.647
    Stream #0:0(eng): Video: h264 (High), yuv420p, 1920x800, SAR 1:1 DAR 12:5, 23.98 fps, 23.98 tbr, 1k tbn, 47.95 tbc (default)
    Metadata:
    BPS : 10283560
    BPS-eng : 10283560
    DURATION : 02:29:01.968000000
    DURATION-eng : 02:29:01.968000000
    NUMBER_OF_FRAMES: 214393
    NUMBER_OF_FRAMES-eng: 214393
    NUMBER_OF_BYTES : 11494408818
    NUMBER_OF_BYTES-eng: 11494408818
    _STATISTICS_WRITING_APP: mkvmerge v7.4.0 ('Circles') 64bit built on Dec 12 2014 12:19:56
    _STATISTICS_WRITING_APP-eng: mkvmerge v7.4.0 ('Circles') 64bit built on Dec 12 2014 12:19:56
    _STATISTICS_WRITING_DATE_UTC: 2014-12-27 17:41:35
    _STATISTICS_WRITING_DATE_UTC-eng: 2014-12-27 17:41:35
    _STATISTICS_TAGS: BPS DURATION NUMBER_OF_FRAMES NUMBER_OF_BYTES
    _STATISTICS_TAGS-eng: BPS DURATION NUMBER_OF_FRAMES NUMBER_OF_BYTES
    Stream #0:1(eng): Audio: dts (DTS), 48000 Hz, 5.1(side), fltp, 1536 kb/s (default)
    Metadata:
    BPS : 1509000
    BPS-eng : 1509000
    DURATION : 02:29:01.984000000
    DURATION-eng : 02:29:01.984000000
    NUMBER_OF_FRAMES: 838311
    NUMBER_OF_FRAMES-eng: 838311
    NUMBER_OF_BYTES : 1686681732
    NUMBER_OF_BYTES-eng: 1686681732
    _STATISTICS_WRITING_APP: mkvmerge v7.4.0 ('Circles') 64bit built on Dec 12 2014 12:19:56
    _STATISTICS_WRITING_APP-eng: mkvmerge v7.4.0 ('Circles') 64bit built on Dec 12 2014 12:19:56
    _STATISTICS_WRITING_DATE_UTC: 2014-12-27 17:41:35
    _STATISTICS_WRITING_DATE_UTC-eng: 2014-12-27 17:41:35
    _STATISTICS_TAGS: BPS DURATION NUMBER_OF_FRAMES NUMBER_OF_BYTES
    _STATISTICS_TAGS-eng: BPS DURATION NUMBER_OF_FRAMES NUMBER_OF_BYTES
    At least one output file must be specified

    <MEZZMO>: Child process ended with code: 109, ExitCode=1


    ---> DB Level Info: 41, 100
    ---> Frame rate: 23.98
    ---> Aspect ratio: 12:5 PAR=1:1
    ---> Duration: 02:29:01

    And here is the ffmpeg info for the file as it's transcoding:

    C:\Program Files (x86)\Conceiva\Mezzmo\ffmpeg64\ffmpeg.exe -y -i "C:\Users\Karl\Downloads\Media\Movies\Gone.Girl.20 14.mkv" -map 0:v:0 -map 0:a:0 -c:v:0 mpeg2video -b:v 8600000 -maxrate 19000000 -bufsize 1835008 -g 45 -filter:v "yadif" -pix_fmt yuv420p -copyinkf -sc_threshold 1000000000 -coder ac -qmin 1 -cmp 2 -subcmp 2 -flags +mv0 -mbd bits -c:a:0 ac3_fixed -ac 6 -ab 448000 -ar 48000 -sn -threads 0 -async 0 -f mpegts "C:\Users\Karl\AppData\Local\Conceiva\Mezzmo\Trans codingFiles\32E44D4D-BE97-40cf-B085-E4AF100D9DD8\Video\13-mpegts-mpeg2video-ac3-sn.mzt"

    ffmpeg version N-66094-gbb8b752 Copyright (c) 2000-2014 the FFmpeg developers
    built on Sep 4 2014 16:23:51 with gcc 4.8.2 (GCC)
    configuration: --enable-memalign-hack --arch=x86_64 --target-os=mingw32 --cross-prefix=x86_64-w64-mingw32- --enable-static --disable-shared --enable-zlib --disable-postproc --prefix=/home/peter/ffmpeg/build/gpl64 --enable-libmp3lame --enable-libx264 --enable-gpl --extra-libs='-lx264 -lpthread' --enable-runtime-cpudetect --extra-cflags=-I/home/peter/cc32/include --extra-ldflags=-L/home/peter/cc64/lib --pkg-config=pkg-config --disable-w32threads --enable-libvpx --enable-libvorbis
    libavutil 54. 7.100 / 54. 7.100
    libavcodec 56. 1.100 / 56. 1.100
    libavformat 56. 4.100 / 56. 4.100
    libavdevice 56. 0.100 / 56. 0.100
    libavfilter 5. 0.103 / 5. 0.103
    libswscale 3. 0.100 / 3. 0.100
    libswresample 1. 1.100 / 1. 1.100
    Input #0, matroska,webm, from 'C:\Users\Karl\Downloads\Media\Movies\Gone.Girl.20 14.mkv':
    Metadata:
    encoder : libebml v1.3.0 + libmatroska v1.4.1
    creation_time : 2014-12-27 17:41:35
    Duration: 02:29:01.98, start: 0.000000, bitrate: 11794 kb/s
    Chapter #0.0: start 0.000000, end 207.958000
    Metadata:
    title : 00:00:00.000
    Chapter #0.1: start 207.958000, end 417.834000
    Metadata:
    title : 00:03:27.958
    Chapter #0.2: start 417.834000, end 499.541000
    Metadata:
    title : 00:06:57.834
    Chapter #0.3: start 499.541000, end 718.593000
    Metadata:
    title : 00:08:19.541
    Chapter #0.4: start 718.593000, end 901.484000
    Metadata:
    title : 00:11:58.593
    Chapter #0.5: start 901.484000, end 1093.509000
    Metadata:
    title : 00:15:01.484
    Chapter #0.6: start 1093.509000, end 1196.737000
    Metadata:
    title : 00:18:13.509
    Chapter #0.7: start 1196.737000, end 1303.093000
    Metadata:
    title : 00:19:56.737
    Chapter #0.8: start 1303.093000, end 1433.849000
    Metadata:
    title : 00:21:43.093
    Chapter #0.9: start 1433.849000, end 1714.880000
    Metadata:
    title : 00:23:53.849
    Chapter #0.10: start 1714.880000, end 1892.516000
    Metadata:
    title : 00:28:34.880
    Chapter #0.11: start 1892.516000, end 2079.077000
    Metadata:
    title : 00:31:32.516
    Chapter #0.12: start 2079.077000, end 2451.199000
    Metadata:
    title : 00:34:39.077
    Chapter #0.13: start 2451.199000, end 2677.383000
    Metadata:
    title : 00:40:51.199
    Chapter #0.14: start 2677.383000, end 2817.815000
    Metadata:
    title : 00:44:37.383
    Chapter #0.15: start 2817.815000, end 2959.707000
    Metadata:
    title : 00:46:57.815
    Chapter #0.16: start 2959.707000, end 3253.333000
    Metadata:
    title : 00:49:19.707
    Chapter #0.17: start 3253.333000, end 3606.686000
    Metadata:
    title : 00:54:13.333
    Chapter #0.18: start 3606.686000, end 3796.209000
    Metadata:
    title : 01:00:06.686
    Chapter #0.19: start 3796.209000, end 3968.715000
    Metadata:
    title : 01:03:16.209
    Chapter #0.20: start 3968.715000, end 4376.998000
    Metadata:
    title : 01:06:08.715
    Chapter #0.21: start 4376.998000, end 4513.008000
    Metadata:
    title : 01:12:56.998
    Chapter #0.22: start 4513.008000, end 4794.456000
    Metadata:
    title : 01:15:13.008
    Chapter #0.23: start 4794.456000, end 4916.120000
    Metadata:
    title : 01:19:54.456
    Chapter #0.24: start 4916.120000, end 5244.156000
    Metadata:
    title : 01:21:56.120
    Chapter #0.25: start 5244.156000, end 5292.537000
    Metadata:
    title : 01:27:24.156
    Chapter #0.26: start 5292.537000, end 5608.561000
    Metadata:
    title : 01:28:12.537
    Chapter #0.27: start 5608.561000, end 5974.510000
    Metadata:
    title : 01:33:28.561
    Chapter #0.28: start 5974.510000, end 6386.714000
    Metadata:
    title : 01:39:34.510
    Chapter #0.29: start 6386.714000, end 6646.515000
    Metadata:
    title : 01:46:26.714
    Chapter #0.30: start 6646.515000, end 7000.619000
    Metadata:
    title : 01:50:46.515
    Chapter #0.31: start 7000.619000, end 7146.097000
    Metadata:
    title : 01:56:40.619
    Chapter #0.32: start 7146.097000, end 7343.127000
    Metadata:
    title : 01:59:06.097
    Chapter #0.33: start 7343.127000, end 7535.069000
    Metadata:
    title : 02:02:23.127
    Chapter #0.34: start 7535.069000, end 7950.818000
    Metadata:
    title : 02:05:35.069
    Chapter #0.35: start 7950.818000, end 8172.790000
    Metadata:
    title : 02:12:30.818
    Chapter #0.36: start 8172.790000, end 8396.930000
    Metadata:
    title : 02:16:12.790
    Chapter #0.37: start 8396.930000, end 8562.304000
    Metadata:
    title : 02:19:56.930
    Chapter #0.38: start 8562.304000, end 8655.647000
    Metadata:
    title : 02:22:42.304
    Chapter #0.39: start 8655.647000, end 8941.984000
    Metadata:
    title : 02:24:15.647
    Stream #0:0(eng): Video: h264 (High), yuv420p, 1920x800, SAR 1:1 DAR 12:5, 23.98 fps, 23.98 tbr, 1k tbn, 47.95 tbc (default)
    Metadata:
    BPS : 10283560
    BPS-eng : 10283560
    DURATION : 02:29:01.968000000
    DURATION-eng : 02:29:01.968000000
    NUMBER_OF_FRAMES: 214393
    NUMBER_OF_FRAMES-eng: 214393
    NUMBER_OF_BYTES : 11494408818
    NUMBER_OF_BYTES-eng: 11494408818
    _STATISTICS_WRITING_APP: mkvmerge v7.4.0 ('Circles') 64bit built on Dec 12 2014 12:19:56
    _STATISTICS_WRITING_APP-eng: mkvmerge v7.4.0 ('Circles') 64bit built on Dec 12 2014 12:19:56
    _STATISTICS_WRITING_DATE_UTC: 2014-12-27 17:41:35
    _STATISTICS_WRITING_DATE_UTC-eng: 2014-12-27 17:41:35
    _STATISTICS_TAGS: BPS DURATION NUMBER_OF_FRAMES NUMBER_OF_BYTES
    _STATISTICS_TAGS-eng: BPS DURATION NUMBER_OF_FRAMES NUMBER_OF_BYTES
    Stream #0:1(eng): Audio: dts (DTS), 48000 Hz, 5.1(side), fltp, 1536 kb/s (default)
    Metadata:
    BPS : 1509000
    BPS-eng : 1509000
    DURATION : 02:29:01.984000000
    DURATION-eng : 02:29:01.984000000
    NUMBER_OF_FRAMES: 838311
    NUMBER_OF_FRAMES-eng: 838311
    NUMBER_OF_BYTES : 1686681732
    NUMBER_OF_BYTES-eng: 1686681732
    _STATISTICS_WRITING_APP: mkvmerge v7.4.0 ('Circles') 64bit built on Dec 12 2014 12:19:56
    _STATISTICS_WRITING_APP-eng: mkvmerge v7.4.0 ('Circles') 64bit built on Dec 12 2014 12:19:56
    _STATISTICS_WRITING_DATE_UTC: 2014-12-27 17:41:35
    _STATISTICS_WRITING_DATE_UTC-eng: 2014-12-27 17:41:35
    _STATISTICS_TAGS: BPS DURATION NUMBER_OF_FRAMES NUMBER_OF_BYTES
    _STATISTICS_TAGS-eng: BPS DURATION NUMBER_OF_FRAMES NUMBER_OF_BYTES
    Output #0, mpegts, to 'C:\Users\Karl\AppData\Local\Conceiva\Mezzmo\Trans codingFiles\32E44D4D-BE97-40cf-B085-E4AF100D9DD8\Video\13-mpegts-mpeg2video-ac3-sn.mzt':
    Metadata:
    encoder : Lavf56.4.100
    Chapter #0.0: start 0.000000, end 207.958000
    Metadata:
    title : 00:00:00.000
    Chapter #0.1: start 207.958000, end 417.834000
    Metadata:
    title : 00:03:27.958
    Chapter #0.2: start 417.834000, end 499.541000
    Metadata:
    title : 00:06:57.834
    Chapter #0.3: start 499.541000, end 718.593000
    Metadata:
    title : 00:08:19.541
    Chapter #0.4: start 718.593000, end 901.484000
    Metadata:
    title : 00:11:58.593
    Chapter #0.5: start 901.484000, end 1093.509000
    Metadata:
    title : 00:15:01.484
    Chapter #0.6: start 1093.509000, end 1196.737000
    Metadata:
    title : 00:18:13.509
    Chapter #0.7: start 1196.737000, end 1303.093000
    Metadata:
    title : 00:19:56.737
    Chapter #0.8: start 1303.093000, end 1433.849000
    Metadata:
    title : 00:21:43.093
    Chapter #0.9: start 1433.849000, end 1714.880000
    Metadata:
    title : 00:23:53.849
    Chapter #0.10: start 1714.880000, end 1892.516000
    Metadata:
    title : 00:28:34.880
    Chapter #0.11: start 1892.516000, end 2079.077000
    Metadata:
    title : 00:31:32.516
    Chapter #0.12: start 2079.077000, end 2451.199000
    Metadata:
    title : 00:34:39.077
    Chapter #0.13: start 2451.199000, end 2677.383000
    Metadata:
    title : 00:40:51.199
    Chapter #0.14: start 2677.383000, end 2817.815000
    Metadata:
    title : 00:44:37.383
    Chapter #0.15: start 2817.815000, end 2959.707000
    Metadata:
    title : 00:46:57.815
    Chapter #0.16: start 2959.707000, end 3253.333000
    Metadata:
    title : 00:49:19.707
    Chapter #0.17: start 3253.333000, end 3606.686000
    Metadata:
    title : 00:54:13.333
    Chapter #0.18: start 3606.686000, end 3796.209000
    Metadata:
    title : 01:00:06.686
    Chapter #0.19: start 3796.209000, end 3968.715000
    Metadata:
    title : 01:03:16.209
    Chapter #0.20: start 3968.715000, end 4376.998000
    Metadata:
    title : 01:06:08.715
    Chapter #0.21: start 4376.998000, end 4513.008000
    Metadata:
    title : 01:12:56.998
    Chapter #0.22: start 4513.008000, end 4794.456000
    Metadata:
    title : 01:15:13.008
    Chapter #0.23: start 4794.456000, end 4916.120000
    Metadata:
    title : 01:19:54.456
    Chapter #0.24: start 4916.120000, end 5244.156000
    Metadata:
    title : 01:21:56.120
    Chapter #0.25: start 5244.156000, end 5292.537000
    Metadata:
    title : 01:27:24.156
    Chapter #0.26: start 5292.537000, end 5608.561000
    Metadata:
    title : 01:28:12.537
    Chapter #0.27: start 5608.561000, end 5974.510000
    Metadata:
    title : 01:33:28.561
    Chapter #0.28: start 5974.510000, end 6386.714000
    Metadata:
    title : 01:39:34.510
    Chapter #0.29: start 6386.714000, end 6646.515000
    Metadata:
    title : 01:46:26.714
    Chapter #0.30: start 6646.515000, end 7000.619000
    Metadata:
    title : 01:50:46.515
    Chapter #0.31: start 7000.619000, end 7146.097000
    Metadata:
    title : 01:56:40.619
    Chapter #0.32: start 7146.097000, end 7343.127000
    Metadata:
    title : 01:59:06.097
    Chapter #0.33: start 7343.127000, end 7535.069000
    Metadata:
    title : 02:02:23.127
    Chapter #0.34: start 7535.069000, end 7950.818000
    Metadata:
    title : 02:05:35.069
    Chapter #0.35: start 7950.818000, end 8172.790000
    Metadata:
    title : 02:12:30.818
    Chapter #0.36: start 8172.790000, end 8396.930000
    Metadata:
    title : 02:16:12.790
    Chapter #0.37: start 8396.930000, end 8562.304000
    Metadata:
    title : 02:19:56.930
    Chapter #0.38: start 8562.304000, end 8655.647000
    Metadata:
    title : 02:22:42.304
    Chapter #0.39: start 8655.647000, end 8941.984000
    Metadata:
    title : 02:24:15.647
    Stream #0:0(eng): Video: mpeg2video, yuv420p, 1920x800 [SAR 1:1 DAR 12:5], q=1-31, 8600 kb/s, 23.98 fps, 90k tbn, 23.98 tbc (default)
    Metadata:
    BPS : 10283560
    BPS-eng : 10283560
    DURATION : 02:29:01.968000000
    DURATION-eng : 02:29:01.968000000
    NUMBER_OF_FRAMES: 214393
    NUMBER_OF_FRAMES-eng: 214393
    NUMBER_OF_BYTES : 11494408818
    NUMBER_OF_BYTES-eng: 11494408818
    _STATISTICS_WRITING_APP: mkvmerge v7.4.0 ('Circles') 64bit built on Dec 12 2014 12:19:56
    _STATISTICS_WRITING_APP-eng: mkvmerge v7.4.0 ('Circles') 64bit built on Dec 12 2014 12:19:56
    _STATISTICS_WRITING_DATE_UTC: 2014-12-27 17:41:35
    _STATISTICS_WRITING_DATE_UTC-eng: 2014-12-27 17:41:35
    _STATISTICS_TAGS: BPS DURATION NUMBER_OF_FRAMES NUMBER_OF_BYTES
    _STATISTICS_TAGS-eng: BPS DURATION NUMBER_OF_FRAMES NUMBER_OF_BYTES
    encoder : Lavc56.1.100 mpeg2video
    Stream #0:1(eng): Audio: ac3 (ac3_fixed), 48000 Hz, 5.1, s16p, 448 kb/s (default)
    Metadata:
    BPS : 1509000
    BPS-eng : 1509000
    DURATION : 02:29:01.984000000
    DURATION-eng : 02:29:01.984000000
    NUMBER_OF_FRAMES: 838311
    NUMBER_OF_FRAMES-eng: 838311
    NUMBER_OF_BYTES : 1686681732
    NUMBER_OF_BYTES-eng: 1686681732
    _STATISTICS_WRITING_APP: mkvmerge v7.4.0 ('Circles') 64bit built on Dec 12 2014 12:19:56
    _STATISTICS_WRITING_APP-eng: mkvmerge v7.4.0 ('Circles') 64bit built on Dec 12 2014 12:19:56
    _STATISTICS_WRITING_DATE_UTC: 2014-12-27 17:41:35
    _STATISTICS_WRITING_DATE_UTC-eng: 2014-12-27 17:41:35
    _STATISTICS_TAGS: BPS DURATION NUMBER_OF_FRAMES NUMBER_OF_BYTES
    _STATISTICS_TAGS-eng: BPS DURATION NUMBER_OF_FRAMES NUMBER_OF_BYTES
    encoder : Lavc56.1.100 ac3_fixed
    Stream mapping:
    Stream #0:0 -> #0:0 (h264 (native) -> mpeg2video (native))
    Stream #0:1 -> #0:1 (dts (dca) -> ac3 (ac3_fixed))
    Press [q] to stop, [?] for help
    frame= 77 fps=0.0 q=2.0 size= 1336kB time=00:00:03.86 bitrate=2830.1kbits/s
    frame= 129 fps=128 q=2.0 size= 4612kB time=00:00:05.94 bitrate=6354.0kbits/s
    frame= 179 fps=119 q=2.0 size= 7932kB time=00:00:08.18 bitrate=7937.3kbits/s
    frame= 235 fps=117 q=2.0 size= 11413kB time=00:00:10.39 bitrate=8994.9kbits/s
    frame= 290 fps=115 q=2.0 size= 13763kB time=00:00:12.73 bitrate=8856.4kbits/s
    frame= 350 fps=116 q=2.0 size= 15261kB time=00:00:15.25 bitrate=8193.5kbits/s
    frame= 413 fps=117 q=2.0 size= 16398kB time=00:00:17.88 bitrate=7512.1kbits/s
    frame= 483 fps=120 q=2.0 size= 17158kB time=00:00:20.79 bitrate=6759.3kbits/s
    frame= 557 fps=122 q=2.0 size= 17734kB time=00:00:23.86 bitrate=6087.3kbits/s
    frame= 628 fps=124 q=2.0 size= 18101kB time=00:00:26.87 bitrate=5517.6kbits/s
    frame= 695 fps=125 q=2.0 size= 19299kB time=00:00:29.59 bitrate=5342.2kbits/s

  2. #2
    Join Date
    Nov 2007
    Location
    Melbourne, Australia
    Posts
    11,616

    Default

    Hi Kkarrl,

    In the SharpAquos2014.prf device profile, add the following bolded lines:

    Code:
    	<avcontainer id="mpegts" name="mpegts" mimetype="video/mpeg" encode="1" format="mpegts" dlnaprofile="MPEG_TS_SD_EU_ISO" preferredtranscoded="1" supportschunked="0">
    		<video>
    			<format id="mpeg1video">
    			</format>
    			<format id="mpeg2video" encode="1" codec="mpeg2video" ffmpegadditional="mpeg2+encoding" preferredtranscoded="1">
    				<copyts>0</copyts>
    				<samequality>0</samequality>
    				<gop>45</gop>
    				<maxbitrate>19000000</maxbitrate>
    				<bitrate>8600000</bitrate>
    				<bufsize>1835008</bufsize>
    			</format>
    		</video>
    		<audio>
    			<format id="ac3" encode="1" codec="ac3" preferredtranscoded="1">
    				<channels>2</channels>
    				<channels>6</channels>
    				<bitrate>448000</bitrate>
    				<maxbitrate>448000</maxbitrate>
    				<minbitrate>64000</minbitrate>
    				<samplingrate>48000</samplingrate>
    			</format>
    			<format id="mp3">
    			</format>
    			<format id="mp2">
    			</format>
    			<format id="dts">
    			</format>
    		</audio>
    		<ffmpegadditional id="union+thread0" />
    	</avcontainer>
    Note: Remember to stop your Mezzmo server and exit Mezzmo when making any device profile file changes. Then run Mezzmo app again and start your Mezzmo server to ensure your device profile file changes are loaded.

    Mezzmo Android: Install it on your tablet, smartphone, Android TV or Amazon Fire to browse and stream files from your Mezzmo library to all your devices. Full details at http://www.conceiva.com/products/mez...mo_android.asp
    Mezzmo for Kodi Add-on: Install it into Kodi to stream files from your Mezzmo library directly in Kodi. Full details at http://www.mezzmo.com/wiki/doku.php?...odi_user_guide
    Mezzmo for Roku App: Install it onto your Roku to stream files from your Mezzmo library. Full details at http://www.mezzmo.com/wiki/doku.php?...oku_user_guide
    Wiki: User Guides & Reference Manual at http://www.mezzmo.com/wiki
    Facebook: http://www.facebook.com/Mezzmo.DLNA.Server
    Twitter: https://twitter.com/conceiva_mezzmo
    Web: http://www.mezzmo.com

  3. #3

    Default

    Code:
    <avcontainer id="mpegts" name="mpegts" mimetype="video/mpeg" encode="1" format="mpegts" dlnaprofile="MPEG_TS_SD_EU_ISO" preferredtranscoded="1" supportschunked="0">
    		<video>
    			<format id="mpeg1video">
    			</format>
    			<format id="mpeg2video" encode="1" codec="mpeg2video" ffmpegadditional="mpeg2+encoding" preferredtranscoded="1">
    				<copyts>0</copyts>
    				<samequality>0</samequality>
    				<gop>45</gop>
    				<maxbitrate>19000000</maxbitrate>
    				<bitrate>8600000</bitrate>
    				<bufsize>1835008</bufsize>
    			</format>
    		</video>
    		<audio>
    			<format id="ac3" encode="1" codec="ac3" preferredtranscoded="1">
    				<channels>2</channels>
    				<channels>6</channels>
    				<bitrate>448000</bitrate>
    				<maxbitrate>448000</maxbitrate>
    				<minbitrate>64000</minbitrate>
    				<samplingrate>48000</samplingrate>
    			<format id="mp3">
    			</format>
    			<format id="mp2">
    			</format>
    			<format id="dts">
    			</format>
    		</audio>
    		<ffmpegadditional id="union+thread0" />
    	</avcontainer>
    That is what my .prf now looks like for the mpeg2 containter. It does not appear to have made a difference after stopping, closing, opening and restarting Mezzmo. The movie is still being fully transcoded to mpeg2+ac3.

    ffmpeg info for the file I am now using:

    ffmpeg version N-66094-gbb8b752 Copyright (c) 2000-2014 the FFmpeg developers
    built on Sep 4 2014 16:23:51 with gcc 4.8.2 (GCC)
    configuration: --enable-memalign-hack --arch=x86_64 --target-os=mingw32 --cross-prefix=x86_64-w64-mingw32- --enable-static --disable-shared --enable-zlib --disable-postproc --prefix=/home/peter/ffmpeg/build/gpl64 --enable-libmp3lame --enable-libx264 --enable-gpl --extra-libs='-lx264 -lpthread' --enable-runtime-cpudetect --extra-cflags=-I/home/peter/cc32/include --extra-ldflags=-L/home/peter/cc64/lib --pkg-config=pkg-config --disable-w32threads --enable-libvpx --enable-libvorbis
    libavutil 54. 7.100 / 54. 7.100
    libavcodec 56. 1.100 / 56. 1.100
    libavformat 56. 4.100 / 56. 4.100
    libavdevice 56. 0.100 / 56. 0.100
    libavfilter 5. 0.103 / 5. 0.103
    libswscale 3. 0.100 / 3. 0.100
    libswresample 1. 1.100 / 1. 1.100
    Input #0, matroska,webm, from 'C:\Users\Karl\Downloads\Media\Movies\Thor.The.Dar k.World.2013.mkv':
    Metadata:
    title : Thor.The.Dark.World.2013
    encoder : libebml v1.3.0 + libmatroska v1.4.1
    creation_time : 2015-03-20 01:39:48
    Duration: 01:52:04.46, start: 0.000000, bitrate: 16317 kb/s
    Stream #0:0(eng): Video: h264 (High), yuv420p, 1920x800, SAR 1:1 DAR 12:5, 23.98 fps, 23.98 tbr, 1k tbn, 47.95 tbc (default)
    Metadata:
    BPS : 12346803
    BPS-eng : 12346803
    DURATION : 01:52:04.218000000
    DURATION-eng : 01:52:04.218000000
    NUMBER_OF_FRAMES: 161220
    NUMBER_OF_FRAMES-eng: 161220
    NUMBER_OF_BYTES : 10377824663
    NUMBER_OF_BYTES-eng: 10377824663
    _STATISTICS_WRITING_APP: mkvmerge v7.4.0 ('Circles') 64bit built on Dec 12 2014 12:19:56
    _STATISTICS_WRITING_APP-eng: mkvmerge v7.4.0 ('Circles') 64bit built on Dec 12 2014 12:19:56
    _STATISTICS_WRITING_DATE_UTC: 2015-03-20 01:39:48
    _STATISTICS_WRITING_DATE_UTC-eng: 2015-03-20 01:39:48
    _STATISTICS_TAGS: BPS DURATION NUMBER_OF_FRAMES NUMBER_OF_BYTES
    _STATISTICS_TAGS-eng: BPS DURATION NUMBER_OF_FRAMES NUMBER_OF_BYTES
    Stream #0:1(eng): Audio: dts (DTS), 48000 Hz, 5.1(side), fltp, 3840 kb/s (default)
    Metadata:
    BPS : 3968287
    BPS-eng : 3968287
    DURATION : 01:52:04.459000000
    DURATION-eng : 01:52:04.459000000
    NUMBER_OF_FRAMES: 315212
    NUMBER_OF_FRAMES-eng: 315212
    NUMBER_OF_BYTES : 3335573384
    NUMBER_OF_BYTES-eng: 3335573384
    _STATISTICS_WRITING_APP: mkvmerge v7.4.0 ('Circles') 64bit built on Dec 12 2014 12:19:56
    _STATISTICS_WRITING_APP-eng: mkvmerge v7.4.0 ('Circles') 64bit built on Dec 12 2014 12:19:56
    _STATISTICS_WRITING_DATE_UTC: 2015-03-20 01:39:48
    _STATISTICS_WRITING_DATE_UTC-eng: 2015-03-20 01:39:48
    _STATISTICS_TAGS: BPS DURATION NUMBER_OF_FRAMES NUMBER_OF_BYTES
    _STATISTICS_TAGS-eng: BPS DURATION NUMBER_OF_FRAMES NUMBER_OF_BYTES
    At least one output file must be specified

    <MEZZMO>: Child process ended with code: 109, ExitCode=1


    ---> DB Level Info: 40, 100
    ---> Frame rate: 23.98
    ---> Aspect ratio: 12:5 PAR=1:1
    ---> Duration: 01:52:09

    Ffmpeg output with the change to the .prf:

    C:\Program Files (x86)\Conceiva\Mezzmo\ffmpeg64\ffmpeg.exe -y -i "C:\Users\Karl\Downloads\Media\Movies\Thor.The.Dar k.World.2013.mkv" -map 0:v:0 -map 0:a:0 -c:v:0 mpeg2video -b:v 8600000 -maxrate 19000000 -bufsize 1835008 -g 45 -filter:v "yadif" -pix_fmt yuv420p -copyinkf -sc_threshold 1000000000 -coder ac -qmin 1 -cmp 2 -subcmp 2 -flags +mv0 -mbd bits -c:a:0 ac3_fixed -ar 48000 -sn -threads 0 -async 0 -f mpegts "C:\Users\Karl\AppData\Local\Conceiva\Mezzmo\Trans codingFiles\32E44D4D-BE97-40cf-B085-E4AF100D9DD8\Video\15-mpegts-mpeg2video-ac3-sn.mzt"

    ffmpeg version N-66094-gbb8b752 Copyright (c) 2000-2014 the FFmpeg developers
    built on Sep 4 2014 16:23:51 with gcc 4.8.2 (GCC)
    configuration: --enable-memalign-hack --arch=x86_64 --target-os=mingw32 --cross-prefix=x86_64-w64-mingw32- --enable-static --disable-shared --enable-zlib --disable-postproc --prefix=/home/peter/ffmpeg/build/gpl64 --enable-libmp3lame --enable-libx264 --enable-gpl --extra-libs='-lx264 -lpthread' --enable-runtime-cpudetect --extra-cflags=-I/home/peter/cc32/include --extra-ldflags=-L/home/peter/cc64/lib --pkg-config=pkg-config --disable-w32threads --enable-libvpx --enable-libvorbis
    libavutil 54. 7.100 / 54. 7.100
    libavcodec 56. 1.100 / 56. 1.100
    libavformat 56. 4.100 / 56. 4.100
    libavdevice 56. 0.100 / 56. 0.100
    libavfilter 5. 0.103 / 5. 0.103
    libswscale 3. 0.100 / 3. 0.100
    libswresample 1. 1.100 / 1. 1.100
    Input #0, matroska,webm, from 'C:\Users\Karl\Downloads\Media\Movies\Thor.The.Dar k.World.2013.mkv':
    Metadata:
    title : Thor.The.Dark.World.2013
    encoder : libebml v1.3.0 + libmatroska v1.4.1
    creation_time : 2015-03-20 01:39:48
    Duration: 01:52:04.46, start: 0.000000, bitrate: 16317 kb/s
    Stream #0:0(eng): Video: h264 (High), yuv420p, 1920x800, SAR 1:1 DAR 12:5, 23.98 fps, 23.98 tbr, 1k tbn, 47.95 tbc (default)
    Metadata:
    BPS : 12346803
    BPS-eng : 12346803
    DURATION : 01:52:04.218000000
    DURATION-eng : 01:52:04.218000000
    NUMBER_OF_FRAMES: 161220
    NUMBER_OF_FRAMES-eng: 161220
    NUMBER_OF_BYTES : 10377824663
    NUMBER_OF_BYTES-eng: 10377824663
    _STATISTICS_WRITING_APP: mkvmerge v7.4.0 ('Circles') 64bit built on Dec 12 2014 12:19:56
    _STATISTICS_WRITING_APP-eng: mkvmerge v7.4.0 ('Circles') 64bit built on Dec 12 2014 12:19:56
    _STATISTICS_WRITING_DATE_UTC: 2015-03-20 01:39:48
    _STATISTICS_WRITING_DATE_UTC-eng: 2015-03-20 01:39:48
    _STATISTICS_TAGS: BPS DURATION NUMBER_OF_FRAMES NUMBER_OF_BYTES
    _STATISTICS_TAGS-eng: BPS DURATION NUMBER_OF_FRAMES NUMBER_OF_BYTES
    Stream #0:1(eng): Audio: dts (DTS), 48000 Hz, 5.1(side), fltp, 3840 kb/s (default)
    Metadata:
    BPS : 3968287
    BPS-eng : 3968287
    DURATION : 01:52:04.459000000
    DURATION-eng : 01:52:04.459000000
    NUMBER_OF_FRAMES: 315212
    NUMBER_OF_FRAMES-eng: 315212
    NUMBER_OF_BYTES : 3335573384
    NUMBER_OF_BYTES-eng: 3335573384
    _STATISTICS_WRITING_APP: mkvmerge v7.4.0 ('Circles') 64bit built on Dec 12 2014 12:19:56
    _STATISTICS_WRITING_APP-eng: mkvmerge v7.4.0 ('Circles') 64bit built on Dec 12 2014 12:19:56
    _STATISTICS_WRITING_DATE_UTC: 2015-03-20 01:39:48
    _STATISTICS_WRITING_DATE_UTC-eng: 2015-03-20 01:39:48
    _STATISTICS_TAGS: BPS DURATION NUMBER_OF_FRAMES NUMBER_OF_BYTES
    _STATISTICS_TAGS-eng: BPS DURATION NUMBER_OF_FRAMES NUMBER_OF_BYTES
    Output #0, mpegts, to 'C:\Users\Karl\AppData\Local\Conceiva\Mezzmo\Trans codingFiles\32E44D4D-BE97-40cf-B085-E4AF100D9DD8\Video\15-mpegts-mpeg2video-ac3-sn.mzt':
    Metadata:
    title : Thor.The.Dark.World.2013
    encoder : Lavf56.4.100
    Stream #0:0(eng): Video: mpeg2video, yuv420p, 1920x800 [SAR 1:1 DAR 12:5], q=1-31, 8600 kb/s, 23.98 fps, 90k tbn, 23.98 tbc (default)
    Metadata:
    BPS : 12346803
    BPS-eng : 12346803
    DURATION : 01:52:04.218000000
    DURATION-eng : 01:52:04.218000000
    NUMBER_OF_FRAMES: 161220
    NUMBER_OF_FRAMES-eng: 161220
    NUMBER_OF_BYTES : 10377824663
    NUMBER_OF_BYTES-eng: 10377824663
    _STATISTICS_WRITING_APP: mkvmerge v7.4.0 ('Circles') 64bit built on Dec 12 2014 12:19:56
    _STATISTICS_WRITING_APP-eng: mkvmerge v7.4.0 ('Circles') 64bit built on Dec 12 2014 12:19:56
    _STATISTICS_WRITING_DATE_UTC: 2015-03-20 01:39:48
    _STATISTICS_WRITING_DATE_UTC-eng: 2015-03-20 01:39:48
    _STATISTICS_TAGS: BPS DURATION NUMBER_OF_FRAMES NUMBER_OF_BYTES
    _STATISTICS_TAGS-eng: BPS DURATION NUMBER_OF_FRAMES NUMBER_OF_BYTES
    encoder : Lavc56.1.100 mpeg2video
    Stream #0:1(eng): Audio: ac3 (ac3_fixed), 48000 Hz, 5.1(side), s16p, 448 kb/s (default)
    Metadata:
    BPS : 3968287
    BPS-eng : 3968287
    DURATION : 01:52:04.459000000
    DURATION-eng : 01:52:04.459000000
    NUMBER_OF_FRAMES: 315212
    NUMBER_OF_FRAMES-eng: 315212
    NUMBER_OF_BYTES : 3335573384
    NUMBER_OF_BYTES-eng: 3335573384
    _STATISTICS_WRITING_APP: mkvmerge v7.4.0 ('Circles') 64bit built on Dec 12 2014 12:19:56
    _STATISTICS_WRITING_APP-eng: mkvmerge v7.4.0 ('Circles') 64bit built on Dec 12 2014 12:19:56
    _STATISTICS_WRITING_DATE_UTC: 2015-03-20 01:39:48
    _STATISTICS_WRITING_DATE_UTC-eng: 2015-03-20 01:39:48
    _STATISTICS_TAGS: BPS DURATION NUMBER_OF_FRAMES NUMBER_OF_BYTES
    _STATISTICS_TAGS-eng: BPS DURATION NUMBER_OF_FRAMES NUMBER_OF_BYTES
    encoder : Lavc56.1.100 ac3_fixed
    Stream mapping:
    Stream #0:0 -> #0:0 (h264 (native) -> mpeg2video (native))
    Stream #0:1 -> #0:1 (dts (dca) -> ac3 (ac3_fixed))
    Press [q] to stop, [?] for help
    [mpegts @ 0000000002be54a0] Non-monotonous DTS in output stream 0:1; previous: 180885, current: 178080; changing to 180886. This may result in incorrect timestamps in the output file.
    [mpegts @ 0000000002be54a0] Non-monotonous DTS in output stream 0:1; previous: 350835, current: 347970; changing to 350836. This may result in incorrect timestamps in the output file.
    frame= 92 fps=0.0 q=1.6 size= 590kB time=00:00:04.37 bitrate=1103.4kbits/s
    [mpegts @ 0000000002be54a0] Non-monotonous DTS in output stream 0:1; previous: 535065, current: 530400; changing to 535066. This may result in incorrect timestamps in the output file.
    [mpegts @ 0000000002be54a0] Non-monotonous DTS in output stream 0:1; previous: 535066, current: 533265; changing to 535067. This may result in incorrect timestamps in the output file.
    frame= 140 fps=139 q=5.0 size= 3776kB time=00:00:06.52 bitrate=4742.7kbits/s
    frame= 164 fps=108 q=4.0 size= 6053kB time=00:00:07.38 bitrate=6713.5kbits/s
    [mpegts @ 0000000002be54a0] Non-monotonous DTS in output stream 0:1; previous: 687765, current: 684960; changing to 687766. This may result in incorrect timestamps in the output file.
    frame= 186 fps= 91 q=5.4 size= 8147kB time=00:00:08.31 bitrate=8027.6kbits/s
    [mpegts @ 0000000002be54a0] Non-monotonous DTS in output stream 0:1; previous: 857715, current: 854850; changing to 857716. This may result in incorrect timestamps in the output file.
    frame= 218 fps= 86 q=6.5 size= 11078kB time=00:00:09.65 bitrate=9396.7kbits/s
    [mpegts @ 0000000002be54a0] Non-monotonous DTS in output stream 0:1; previous: 1027605, current: 1024830; changing to 1027606. This may result in incorrect timestamps in the output file.
    frame= 281 fps= 92 q=11.0 size= 14151kB time=00:00:12.28 bitrate=9438.5kbits/s
    frame= 340 fps= 96 q=10.7 size= 17084kB time=00:00:14.90 bitrate=9388.9kbits/s
    [mpegts @ 0000000002be54a0] Non-monotonous DTS in output stream 0:1; previous: 1534485, current: 1531710; changing to 1534486. This may result in incorrect timestamps in the output file.
    frame= 398 fps= 98 q=8.0 size= 19898kB time=00:00:17.14 bitrate=9506.7kbits/s
    frame= 455 fps=100 q=4.0 size= 22619kB time=00:00:19.57 bitrate=9464.6kbits/s
    frame= 514 fps=102 q=8.2 size= 25675kB time=00:00:22.07 bitrate=9527.9kbits/s
    frame= 581 fps=104 q=2.0 size= 28116kB time=00:00:24.88 bitrate=9254.1kbits/s
    [mpegts @ 0000000002be54a0] Non-monotonous DTS in output stream 0:1; previous: 2378355, current: 2375490; changing to 2378356. This may result in incorrect timestamps in the output file.
    frame= 658 fps=108 q=2.0 size= 29942kB time=00:00:28.02 bitrate=8752.2kbits/s
    [mpegts @ 0000000002be54a0] Non-monotonous DTS in output stream 0:1; previous: 2772885, current: 2770110; changing to 2772886. This may result in incorrect timestamps in the output file.
    frame= 749 fps=114 q=2.0 size= 30876kB time=00:00:31.86 bitrate=7937.5kbits/s
    [mpegts @ 0000000002be54a0] Non-monotonous DTS in output stream 0:1; previous: 2939925, current: 2937120; changing to 2939926. This may result in incorrect timestamps in the output file.
    [mpegts @ 0000000002be54a0] Non-monotonous DTS in output stream 0:1; previous: 3109875, current: 3107010; changing to 3109876. This may result in incorrect timestamps in the output file.
    frame= 845 fps=119 q=2.0 size= 31240kB time=00:00:35.83 bitrate=7141.7kbits/s
    [mpegts @ 0000000002be54a0] Non-monotonous DTS in output stream 0:1; previous: 3279765, current: 3276990; changing to 3279766. This may result in incorrect timestamps in the output file.
    [mpegts @ 0000000002be54a0] Non-monotonous DTS in output stream 0:1; previous: 3446805, current: 3444000; changing to 3446806. This may result in incorrect timestamps in the output file.
    frame= 942 fps=124 q=2.0 size= 31605kB time=00:00:39.92 bitrate=6484.0kbits/s
    [mpegts @ 0000000002be54a0] Non-monotonous DTS in output stream 0:1; previous: 3616755, current: 3613890; changing to 3616756. This may result in incorrect timestamps in the output file.
    [mpegts @ 0000000002be54a0] Non-monotonous DTS in output stream 0:1; previous: 3786645, current: 3783870; changing to 3786646. This may result in incorrect timestamps in the output file.
    frame= 1039 fps=129 q=2.0 size= 31995kB time=00:00:43.96 bitrate=5962.1kbits/s
    [mpegts @ 0000000002be54a0] Non-monotonous DTS in output stream 0:1; previous: 3953685, current: 3950880; changing to 3953686. This may result in incorrect timestamps in the output file.
    [mpegts @ 0000000002be54a0] Non-monotonous DTS in output stream 0:1; previous: 4123635, current: 4120770; changing to 4123636. This may result in incorrect timestamps in the output file.
    frame= 1129 fps=132 q=2.0 size= 32532kB time=00:00:47.70 bitrate=5586.3kbits/s

  4. #4
    Join Date
    Nov 2007
    Location
    Melbourne, Australia
    Posts
    11,616

    Default

    Sorry, my addition was wrong. It will not allow remuxing the DTS into the MPEG-TS container. It should be as below.

    Note: Remuxing DTS audio into another file container may not work well. There is a known issue in ffmpeg.exe (the AV encoder tool that Mezzmo uses to transcode audio and video file) whereby remuxed DTS audio is not played correctly on some devices. I suggest you try this change below and see if your TV and soundbar can play it well. If it cannot, then you will have no choice but to go back to AC-3 audio.

    Code:
    	<avcontainer id="mpegts" name="mpegts" mimetype="video/mpeg" encode="1" format="mpegts" dlnaprofile="MPEG_TS_SD_EU_ISO" preferredtranscoded="1" supportschunked="0">
    		<video>
    			<format id="mpeg1video">
    			</format>
    			<format id="mpeg2video" encode="1" codec="mpeg2video" ffmpegadditional="mpeg2+encoding" preferredtranscoded="1">
    				<copyts>0</copyts>
    				<samequality>0</samequality>
    				<gop>45</gop>
    				<maxbitrate>19000000</maxbitrate>
    				<bitrate>8600000</bitrate>
    				<bufsize>1835008</bufsize>
    			</format>
    		</video>
    		<audio>
    			<format id="ac3" encode="1" codec="ac3" preferredtranscoded="1">
    				<channels>2</channels>
    				<channels>6</channels>
    				<bitrate>448000</bitrate>
    				<maxbitrate>448000</maxbitrate>
    				<minbitrate>64000</minbitrate>
    				<samplingrate>48000</samplingrate>
    			</format>
    			<format id="mp3">
    			</format>
    			<format id="mp2">
    			</format>
    			<format id="dts" codec="dts" encode="1">
    			</format>
    		</audio>
    		<ffmpegadditional id="union+thread0" />
    	</avcontainer>

    Mezzmo Android: Install it on your tablet, smartphone, Android TV or Amazon Fire to browse and stream files from your Mezzmo library to all your devices. Full details at http://www.conceiva.com/products/mez...mo_android.asp
    Mezzmo for Kodi Add-on: Install it into Kodi to stream files from your Mezzmo library directly in Kodi. Full details at http://www.mezzmo.com/wiki/doku.php?...odi_user_guide
    Mezzmo for Roku App: Install it onto your Roku to stream files from your Mezzmo library. Full details at http://www.mezzmo.com/wiki/doku.php?...oku_user_guide
    Wiki: User Guides & Reference Manual at http://www.mezzmo.com/wiki
    Facebook: http://www.facebook.com/Mezzmo.DLNA.Server
    Twitter: https://twitter.com/conceiva_mezzmo
    Web: http://www.mezzmo.com

  5. #5

    Default

    That appears to have done the trick. It seems to work well with almost my entire library also, sans 1 title, but that is good enough for me. Thank you Paul.

  6. #6
    Join Date
    Nov 2007
    Location
    Melbourne, Australia
    Posts
    11,616

    Default

    Glad that works . Hope you enjoy streaming with Mezzmo!

    Mezzmo Android: Install it on your tablet, smartphone, Android TV or Amazon Fire to browse and stream files from your Mezzmo library to all your devices. Full details at http://www.conceiva.com/products/mez...mo_android.asp
    Mezzmo for Kodi Add-on: Install it into Kodi to stream files from your Mezzmo library directly in Kodi. Full details at http://www.mezzmo.com/wiki/doku.php?...odi_user_guide
    Mezzmo for Roku App: Install it onto your Roku to stream files from your Mezzmo library. Full details at http://www.mezzmo.com/wiki/doku.php?...oku_user_guide
    Wiki: User Guides & Reference Manual at http://www.mezzmo.com/wiki
    Facebook: http://www.facebook.com/Mezzmo.DLNA.Server
    Twitter: https://twitter.com/conceiva_mezzmo
    Web: http://www.mezzmo.com

Similar Threads

  1. Help, Sharp Aquos LC-70EQ10U and MKVs
    By bave in forum Mezzmo Questions and Support
    Replies: 3
    Last Post: 12-28-2014, 10:43 AM
  2. Android Mezzmo not seen on Sharp Aquos (2012) TV
    By mhg in forum Mezzmo Questions and Support
    Replies: 10
    Last Post: 11-21-2014, 09:10 AM
  3. Mezzmo 3.2 in Sharp Aquos LC40LE630E
    By lluisbru in forum Mezzmo Questions and Support
    Replies: 3
    Last Post: 06-14-2013, 09:20 AM
  4. Sharp Aquos C8470U - Not playing my MKV files
    By Scott in forum Mezzmo Questions and Support
    Replies: 13
    Last Post: 12-21-2012, 04:23 PM
  5. Using Mezzmo with a Sharp Aquos Quattron LC-70LE733U TV
    By FunkyBoss in forum Mezzmo Questions and Support
    Replies: 7
    Last Post: 01-23-2012, 08:31 AM

Tags for this Thread

Bookmarks

Posting Permissions

  • You may not post new threads
  • You may not post replies
  • You may not post attachments
  • You may not edit your posts
  •