Page 1 of 2 12 LastLast
Results 1 to 10 of 13

Thread: Movie doesn't play.

  1. #1
    Join Date
    Oct 2010
    Posts
    51

    Unhappy Movie doesn't play.

    Any reason why this movie wouldnt play? I have others that don't play either...
    I have had other highprofile 5.1 movies that work.
    Thanks.
    -------------------------------------------------------------------------------
    FFmpeg version SVN-r25446, Copyright (c) 2000-2010 the FFmpeg developers
    built on Oct 12 2010 10:38:21 with gcc 4.4.2
    configuration: --enable-memalign-hack --arch=x86 --target-os=mingw32 --cross-prefix=i686-mingw32- --enable-static --disable-shared --enable-zlib --disable-ffprobe --disable-ffplay --prefix=/media/windows-share/ffmpeg --extra-cflags=-U__STRICT_ANSI__ --enable-libmp3lame --enable-libx264 --enable-gpl --extra-libs='-lx264 -lpthread' --enable-runtime-cpudetect
    libavutil 50.32. 3 / 50.32. 3
    libavcore 0. 9. 1 / 0. 9. 1
    libavcodec 52.92. 0 / 52.92. 0
    libavformat 52.81. 0 / 52.81. 0
    libavdevice 52. 2. 2 / 52. 2. 2
    libavfilter 1.50. 1 / 1.50. 1
    libswscale 0.12. 0 / 0.12. 0
    [matroska,webm @ 0134ccb0] max_analyze_duration reached
    [matroska,webm @ 0134ccb0] Estimating duration from bitrate, this may be inaccurate

    Seems stream 0 codec frame rate differs from container frame rate: 47.95 (5000000/104271) -> 23.98 (24000/1001)
    Input #0, matroska,webm, from 'F:\Videos\Movies\HD\Bee Movie (2007)\Bee Movie (2007)_720p.AC3.DTS.VORBIS.mkv':
    Metadata:
    title : Bee Movie 2007 720p BluRay DTS x264-ESiR
    Duration: 01:30:40.86, start: 0.000000, bitrate: 1536 kb/s
    Stream #0.0(eng): Video: h264, yuv420p, 1280x720, PAR 1:1 DAR 16:9, 23.98 fps, 23.98 tbr, 1k tbn, 47.95 tbc
    Stream #0.1(eng): Audio: dca, 48000 Hz, 5.1, s16, 1536 kb/s
    Metadata:
    title : DTS 5.1
    Stream #0.2(eng): Audio: vorbis, 48000 Hz, stereo, s16
    Metadata:
    title : Commentary
    Stream #0.3(eng): Subtitle: [0][0][0][0] / 0x0000
    Stream #0.4: Attachment: [0][0][0][0] / 0x0000
    Metadata:
    filename : CronosPro-Bold.ttf
    Stream #0.5: Attachment: [0][0][0][0] / 0x0000
    Metadata:
    filename : CronosPro-Semibold.ttf
    Stream #0.6: Attachment: [0][0][0][0] / 0x0000
    Metadata:
    filename : CronosPro-SemiboldIt.ttf
    At least one output file must be specified


    ---> DB Level Info: 51
    -------------------------------------------------------------------------------

  2. #2
    Join Date
    Nov 2007
    Location
    Melbourne, Australia
    Posts
    11,635

    Default

    Most probably because of "dca" sound - which device? Is transcoding turned on?

    Mezzmo Android: Install it on your tablet, smartphone, Android TV or Amazon Fire to browse and stream files from your Mezzmo library to all your devices. Full details at http://www.conceiva.com/products/mez...mo_android.asp
    Mezzmo for Kodi Add-on: Install it into Kodi to stream files from your Mezzmo library directly in Kodi. Full details at http://www.mezzmo.com/wiki/doku.php?...odi_user_guide
    Mezzmo for Roku App: Install it onto your Roku to stream files from your Mezzmo library. Full details at http://www.mezzmo.com/wiki/doku.php?...oku_user_guide
    Wiki: User Guides & Reference Manual at http://www.mezzmo.com/wiki
    Facebook: http://www.facebook.com/Mezzmo.DLNA.Server
    Twitter: https://twitter.com/conceiva_mezzmo
    Web: http://www.mezzmo.com

  3. #3
    Join Date
    Oct 2010
    Posts
    51

    Default

    Quote Originally Posted by Dennis View Post
    Most probably because of "dca" sound - which device? Is transcoding turned on?

    What is "dca" ?
    I have transcoding turned off...

  4. #4
    Join Date
    Nov 2007
    Location
    Melbourne, Australia
    Posts
    11,635

    Default

    "dca" is DTS sound and it's not supported by all device (certain Samsung TV models, for example).

    Mezzmo Android: Install it on your tablet, smartphone, Android TV or Amazon Fire to browse and stream files from your Mezzmo library to all your devices. Full details at http://www.conceiva.com/products/mez...mo_android.asp
    Mezzmo for Kodi Add-on: Install it into Kodi to stream files from your Mezzmo library directly in Kodi. Full details at http://www.mezzmo.com/wiki/doku.php?...odi_user_guide
    Mezzmo for Roku App: Install it onto your Roku to stream files from your Mezzmo library. Full details at http://www.mezzmo.com/wiki/doku.php?...oku_user_guide
    Wiki: User Guides & Reference Manual at http://www.mezzmo.com/wiki
    Facebook: http://www.facebook.com/Mezzmo.DLNA.Server
    Twitter: https://twitter.com/conceiva_mezzmo
    Web: http://www.mezzmo.com

  5. #5
    Join Date
    Oct 2010
    Posts
    51

    Default

    Yes I have played other mkv's with DTS audio and they work without any problems.

  6. #6
    Join Date
    Nov 2007
    Location
    Melbourne, Australia
    Posts
    11,635

    Default

    It could be something else then, for example the frame rate - do you have any other MKVs with that same frame rate (23.98) that play (or don't play)?

    Mezzmo Android: Install it on your tablet, smartphone, Android TV or Amazon Fire to browse and stream files from your Mezzmo library to all your devices. Full details at http://www.conceiva.com/products/mez...mo_android.asp
    Mezzmo for Kodi Add-on: Install it into Kodi to stream files from your Mezzmo library directly in Kodi. Full details at http://www.mezzmo.com/wiki/doku.php?...odi_user_guide
    Mezzmo for Roku App: Install it onto your Roku to stream files from your Mezzmo library. Full details at http://www.mezzmo.com/wiki/doku.php?...oku_user_guide
    Wiki: User Guides & Reference Manual at http://www.mezzmo.com/wiki
    Facebook: http://www.facebook.com/Mezzmo.DLNA.Server
    Twitter: https://twitter.com/conceiva_mezzmo
    Web: http://www.mezzmo.com

  7. #7
    Join Date
    Oct 2010
    Posts
    51

    Default

    Ill try find some movies with the same specs and see if they work. Ill keep you posted

  8. #8
    Join Date
    Oct 2010
    Posts
    51

    Unhappy

    ** This (23.98) movie playes. But FF/FR/Pause doesnt work (strange) **

    FFmpeg version SVN-r25446, Copyright (c) 2000-2010 the FFmpeg developers
    built on Oct 12 2010 10:38:21 with gcc 4.4.2
    configuration: --enable-memalign-hack --arch=x86 --target-os=mingw32 --cross-prefix=i686-mingw32- --enable-static --disable-shared --enable-zlib --disable-ffprobe --disable-ffplay --prefix=/media/windows-share/ffmpeg --extra-cflags=-U__STRICT_ANSI__ --enable-libmp3lame --enable-libx264 --enable-gpl --extra-libs='-lx264 -lpthread' --enable-runtime-cpudetect
    libavutil 50.32. 3 / 50.32. 3
    libavcore 0. 9. 1 / 0. 9. 1
    libavcodec 52.92. 0 / 52.92. 0
    libavformat 52.81. 0 / 52.81. 0
    libavdevice 52. 2. 2 / 52. 2. 2
    libavfilter 1.50. 1 / 1.50. 1
    libswscale 0.12. 0 / 0.12. 0
    [matroska,webm @ 011bcc70] Read error at pos. 4686834627 (0x1175b6bc3)
    [matroska,webm @ 011bcc70] Estimating duration from bitrate, this may be inaccurate
    Seems stream 0 codec frame rate differs from container frame rate: 47.95 (500000/10427) -> 23.98 (24000/1001)
    Input #0, matroska,webm, from 'E:\HD\1408 (2007)\1408 (2007)_720p.AC3.mkv':
    Duration: 01:52:30.83, start: 0.000000, bitrate: 384 kb/s
    Stream #0.0(eng): Video: h264, yuv420p, 1280x688, PAR 1:1 DAR 80:43, 23.98 fps, 23.98 tbr, 1k tbn, 47.95 tbc
    Stream #0.1: Audio: ac3, 48000 Hz, 5.1, s16, 384 kb/s
    At least one output file must be specified

    ---> DB Level Info: 51


    ------------------------------------------------------------------------------
    ** The Movies listed below don't work (Video Codec Not Supported) **

    FFmpeg version SVN-r25446, Copyright (c) 2000-2010 the FFmpeg developers
    built on Oct 12 2010 10:38:21 with gcc 4.4.2
    configuration: --enable-memalign-hack --arch=x86 --target-os=mingw32 --cross-prefix=i686-mingw32- --enable-static --disable-shared --enable-zlib --disable-ffprobe --disable-ffplay --prefix=/media/windows-share/ffmpeg --extra-cflags=-U__STRICT_ANSI__ --enable-libmp3lame --enable-libx264 --enable-gpl --extra-libs='-lx264 -lpthread' --enable-runtime-cpudetect
    libavutil 50.32. 3 / 50.32. 3
    libavcore 0. 9. 1 / 0. 9. 1
    libavcodec 52.92. 0 / 52.92. 0
    libavformat 52.81. 0 / 52.81. 0
    libavdevice 52. 2. 2 / 52. 2. 2
    libavfilter 1.50. 1 / 1.50. 1
    libswscale 0.12. 0 / 0.12. 0
    [matroska,webm @ 0037ccb0] max_analyze_duration reached
    [matroska,webm @ 0037ccb0] Estimating duration from bitrate, this may be inaccurate
    Seems stream 0 codec frame rate differs from container frame rate: 47.95 (5000000/104271) -> 23.98 (24000/1001)
    Input #0, matroska,webm, from 'F:\Videos\Movies\HD\Bee Movie (2007)\Bee Movie (2007)_720p.AC3.DTS.VORBIS.mkv':
    Metadata:
    title : Bee Movie 2007 720p BluRay DTS x264-ESiR
    Duration: 01:30:40.86, start: 0.000000, bitrate: 1536 kb/s
    Stream #0.0(eng): Video: h264, yuv420p, 1280x720, PAR 1:1 DAR 16:9, 23.98 fps, 23.98 tbr, 1k tbn, 47.95 tbc
    Stream #0.1(eng): Audio: dca, 48000 Hz, 5.1, s16, 1536 kb/s
    Metadata:
    title : DTS 5.1
    Stream #0.2(eng): Audio: vorbis, 48000 Hz, stereo, s16
    Metadata:
    title : Commentary
    Stream #0.3(eng): Subtitle: [0][0][0][0] / 0x0000
    Stream #0.4: Attachment: [0][0][0][0] / 0x0000
    Metadata:
    filename : CronosPro-Bold.ttf
    Stream #0.5: Attachment: [0][0][0][0] / 0x0000
    Metadata:
    filename : CronosPro-Semibold.ttf
    Stream #0.6: Attachment: [0][0][0][0] / 0x0000
    Metadata:
    filename : CronosPro-SemiboldIt.ttf
    At least one output file must be specified

    ---> DB Level Info: 51

    FFmpeg version SVN-r25446, Copyright (c) 2000-2010 the FFmpeg developers
    built on Oct 12 2010 10:38:21 with gcc 4.4.2
    configuration: --enable-memalign-hack --arch=x86 --target-os=mingw32 --cross-prefix=i686-mingw32- --enable-static --disable-shared --enable-zlib --disable-ffprobe --disable-ffplay --prefix=/media/windows-share/ffmpeg --extra-cflags=-U__STRICT_ANSI__ --enable-libmp3lame --enable-libx264 --enable-gpl --extra-libs='-lx264 -lpthread' --enable-runtime-cpudetect
    libavutil 50.32. 3 / 50.32. 3
    libavcore 0. 9. 1 / 0. 9. 1
    libavcodec 52.92. 0 / 52.92. 0
    libavformat 52.81. 0 / 52.81. 0
    libavdevice 52. 2. 2 / 52. 2. 2
    libavfilter 1.50. 1 / 1.50. 1
    libswscale 0.12. 0 / 0.12. 0
    [matroska,webm @ 003ccc70] max_analyze_duration reached
    [matroska,webm @ 003ccc70] Estimating duration from bitrate, this may be inaccurate
    Seems stream 0 codec frame rate differs from container frame rate: 47.95 (5000000/104271) -> 23.98 (24000/1001)
    Input #0, matroska,webm, from 'E:\HD\Apocalypto (2006)\Apocalypto (2006)_1080p.DTS.mkv':
    Duration: 02:18:21.25, start: 0.000000, bitrate: 1536 kb/s
    Stream #0.0(eng): Video: h264, yuv420p, 1920x1040, PAR 1:1 DAR 24:13, 23.98 fps, 23.98 tbr, 1k tbn, 47.95 tbc
    Stream #0.1: Audio: dca, 48000 Hz, 5.1, s16, 1536 kb/s
    Stream #0.2(eng): Subtitle: [0][0][0][0] / 0x0000
    Stream #0.3(dan): Subtitle: [0][0][0][0] / 0x0000
    Stream #0.4(fin): Subtitle: [0][0][0][0] / 0x0000
    Stream #0.5(fre): Subtitle: [0][0][0][0] / 0x0000
    Stream #0.6(ger): Subtitle: [0][0][0][0] / 0x0000
    Stream #0.7(heb): Subtitle: [0][0][0][0] / 0x0000
    Stream #0.8(hun): Subtitle: [0][0][0][0] / 0x0000
    Stream #0.9(pol): Subtitle: [0][0][0][0] / 0x0000
    Stream #0.10(rum): Subtitle: [0][0][0][0] / 0x0000
    Stream #0.11(spa): Subtitle: [0][0][0][0] / 0x0000
    Stream #0.12(swe): Subtitle: [0][0][0][0] / 0x0000
    At least one output file must be specified

    ---> DB Level Info: 51


    FFmpeg version SVN-r25446, Copyright (c) 2000-2010 the FFmpeg developers
    built on Oct 12 2010 10:38:21 with gcc 4.4.2
    configuration: --enable-memalign-hack --arch=x86 --target-os=mingw32 --cross-prefix=i686-mingw32- --enable-static --disable-shared --enable-zlib --disable-ffprobe --disable-ffplay --prefix=/media/windows-share/ffmpeg --extra-cflags=-U__STRICT_ANSI__ --enable-libmp3lame --enable-libx264 --enable-gpl --extra-libs='-lx264 -lpthread' --enable-runtime-cpudetect
    libavutil 50.32. 3 / 50.32. 3
    libavcore 0. 9. 1 / 0. 9. 1
    libavcodec 52.92. 0 / 52.92. 0
    libavformat 52.81. 0 / 52.81. 0
    libavdevice 52. 2. 2 / 52. 2. 2
    libavfilter 1.50. 1 / 1.50. 1
    libswscale 0.12. 0 / 0.12. 0
    [matroska,webm @ 0134cc70] Estimating duration from bitrate, this may be inaccurate
    Seems stream 0 codec frame rate differs from container frame rate: 47.95 (5000000/104271) -> 24.00 (24/1)
    Input #0, matroska,webm, from 'E:\HD\Anchorman - The Legend of Ron Burgundy (2004)\Anchorman - The Legend of Ron Burgundy (2004)_1080p.DTS.mkv':
    Duration: 01:37:28.60, start: 0.000000, bitrate: 1536 kb/s
    Stream #0.0(eng): Video: h264, yuv420p, 1920x1080, PAR 1:1 DAR 16:9, 23.98 fps, 24 tbr, 1k tbn, 47.95 tbc
    Stream #0.1: Audio: dca, 48000 Hz, 5.1, s16, 1536 kb/s
    At least one output file must be specified

    ---> DB Level Info: 51

    ----------------------------------------------------------------------------
    All I notice is that the movie that works has 1 less 0 if that means anything?
    47.95 (500000/10427) -> 23.98 (24000/1001) Movie that works (only found 1 like this)
    47.95 (5000000/104271) -> 23.98 (24000/1001) Movies that dont work (found 3 so far)

  9. #9
    Join Date
    Nov 2007
    Location
    Melbourne, Australia
    Posts
    11,635

    Default

    I am not really sure - I'll need to investigate this some more. Thanks for posting the file info. Is there a way for me to download one of the non-playing movies (if you could PM me a link or something) - then I could try them here and see if I can spot any additional differences between playing and non-playing ones.

    Mezzmo Android: Install it on your tablet, smartphone, Android TV or Amazon Fire to browse and stream files from your Mezzmo library to all your devices. Full details at http://www.conceiva.com/products/mez...mo_android.asp
    Mezzmo for Kodi Add-on: Install it into Kodi to stream files from your Mezzmo library directly in Kodi. Full details at http://www.mezzmo.com/wiki/doku.php?...odi_user_guide
    Mezzmo for Roku App: Install it onto your Roku to stream files from your Mezzmo library. Full details at http://www.mezzmo.com/wiki/doku.php?...oku_user_guide
    Wiki: User Guides & Reference Manual at http://www.mezzmo.com/wiki
    Facebook: http://www.facebook.com/Mezzmo.DLNA.Server
    Twitter: https://twitter.com/conceiva_mezzmo
    Web: http://www.mezzmo.com

  10. #10
    Join Date
    Oct 2010
    Posts
    51

    Default

    Hi Dennis,

    Sorry for the late reply. I have been doing a lot of research on h.264 and the limits of the Samsung C profile TV with a lot of testing.

    I have found out why the movies listed above and a lot of others don't work.

    It's the "reframes" that are causing the problems with playback.

    What command line option are you using to dump file info with ffmpeg.exe?

Tags for this Thread

Bookmarks

Posting Permissions

  • You may not post new threads
  • You may not post replies
  • You may not post attachments
  • You may not edit your posts
  •