Results 1 to 3 of 3

Thread: Cannot Pause or RWD, FWD MKV and AVI files...

  1. #1
    Join Date
    Nov 2010
    Posts
    38

    Unhappy Cannot Pause or RWD, FWD MKV and AVI files...

    As it states in the title, I am having difficulty with my Samsung UNC55C6500 and MKV files. It will not let me fast forward, rewind or pause. I am using the Samsung C profile.

    Please advise, otherwise Mezzmo is perfect.

    Thanks.

  2. #2
    Join Date
    Nov 2007
    Location
    Melbourne, Australia
    Posts
    11,616

    Default

    Can you please send a message to support (at) conceiva (dot) com and we'll send an updated device profile that should fix that.

    Mezzmo Android: Install it on your tablet, smartphone, Android TV or Amazon Fire to browse and stream files from your Mezzmo library to all your devices. Full details at http://www.conceiva.com/products/mez...mo_android.asp
    Mezzmo for Kodi Add-on: Install it into Kodi to stream files from your Mezzmo library directly in Kodi. Full details at http://www.mezzmo.com/wiki/doku.php?...odi_user_guide
    Mezzmo for Roku App: Install it onto your Roku to stream files from your Mezzmo library. Full details at http://www.mezzmo.com/wiki/doku.php?...oku_user_guide
    Wiki: User Guides & Reference Manual at http://www.mezzmo.com/wiki
    Facebook: http://www.facebook.com/Mezzmo.DLNA.Server
    Twitter: https://twitter.com/conceiva_mezzmo
    Web: http://www.mezzmo.com

  3. #3
    Join Date
    Nov 2010
    Posts
    38

    Default

    INFO on file that I cannot fast forward or rewind:

    FFmpeg version SVN-r25446, Copyright (c) 2000-2010 the FFmpeg developers
    built on Oct 12 2010 10:38:21 with gcc 4.4.2
    configuration: --enable-memalign-hack --arch=x86 --target-os=mingw32 --cross-prefix=i686-mingw32- --enable-static --disable-shared --enable-zlib --disable-ffprobe --disable-ffplay --prefix=/media/windows-share/ffmpeg --extra-cflags=-U__STRICT_ANSI__ --enable-libmp3lame --enable-libx264 --enable-gpl --extra-libs='-lx264 -lpthread' --enable-runtime-cpudetect
    libavutil 50.32. 3 / 50.32. 3
    libavcore 0. 9. 1 / 0. 9. 1
    libavcodec 52.92. 0 / 52.92. 0
    libavformat 52.81. 0 / 52.81. 0
    libavdevice 52. 2. 2 / 52. 2. 2
    libavfilter 1.50. 1 / 1.50. 1
    libswscale 0.12. 0 / 0.12. 0
    [matroska,webm @ 0033d0f0] max_analyze_duration reached
    [matroska,webm @ 0033d0f0] Estimating duration from bitrate, this may be inaccurate
    Input #0, matroska,webm, from 'F:\Movies\720p\memento.2000.720p.bdrip.x264-progress.mkv':
    Duration: 01:53:27.75, start: 0.000000, bitrate: 768 kb/s
    Stream #0.0(eng): Video: h264, yuv420p, 1280x544, PAR 1:1 DAR 40:17, 23.98 fps, 23.98 tbr, 1k tbn, 47.95 tbc
    Stream #0.1(eng): Audio: dca, 48000 Hz, 5.1, s16, 768 kb/s
    Metadata:
    title : DTS 5.1
    Stream #0.2(eng): Subtitle: [0][0][0][0] / 0x0000
    Metadata:
    title : English
    At least one output file must be specified


    ---> DB Level Info: 51

Tags for this Thread

Bookmarks

Posting Permissions

  • You may not post new threads
  • You may not post replies
  • You may not post attachments
  • You may not edit your posts
  •