Results 1 to 8 of 8

Thread: 7.1 Sound problem

  1. #1
    Join Date
    Oct 2012
    Posts
    19

    Default 7.1 Sound problem

    Hi,

    I'm trying to stream to a Chromecast a file with 7.1 sound. However, no sound is playing and when I try to pre-transcode it fails with this error log:

    C:\Program Files (x86)\Conceiva\Mezzmo\ffmpeg64\ffmpeg.exe -y -i "C:\Users\Home\Pictures\Videos\Movies\Movies\Mad.M ax-Fury.Road.2015.Bluray.1080p.TrueHD-7.1.Atmos.x264-Grym\Mad.Max-Fury.Road.2015.Bluray.1080p.TrueHD-7.1.Atmos.x264-Grym.mkv" -map 0:v:0 -map 0:a:0 -c:v:0 libx264 -level 42 -profile:v main -filter:v "yadif" -pix_fmt yuv420p -copyinkf -coder 1 -flags +loop -fflags +genpts -subq 7 -me_range 16 -g 250 -keyint_min 25 -sc_threshold 40 -b_strategy 1 -x264opts direct-pred=auto:b-pyramid=normal:mixed-refs=1:weightb=1:8x8dct=1:fast-pskip=1:crf=22:ref=2:bframes=3:aud=1:me=hex -partitions -parti8x8-parti4x4-partp8x8-partp4x4-partb8x8 -bidir_refine 1 -c:a:0 aac -ar 48000 -strict experimental -sn -threads 0 -async 0 -f matroska "C:\Users\Home\AppData\Local\Conceiva\Mezzmo\Trans codingFiles\10C92FC9-B136-47cf-9B49-3A1B78A0B32A\Video\6773-fake_mp4-libx264-aac-sb199.mzt"

    ffmpeg version N-66094-gbb8b752 Copyright (c) 2000-2014 the FFmpeg developers
    built on Sep 4 2014 16:23:51 with gcc 4.8.2 (GCC)
    configuration: --enable-memalign-hack --arch=x86_64 --target-os=mingw32 --cross-prefix=x86_64-w64-mingw32- --enable-static --disable-shared --enable-zlib --disable-postproc --prefix=/home/peter/ffmpeg/build/gpl64 --enable-libmp3lame --enable-libx264 --enable-gpl --extra-libs='-lx264 -lpthread' --enable-runtime-cpudetect --extra-cflags=-I/home/peter/cc32/include --extra-ldflags=-L/home/peter/cc64/lib --pkg-config=pkg-config --disable-w32threads --enable-libvpx --enable-libvorbis
    libavutil 54. 7.100 / 54. 7.100
    libavcodec 56. 1.100 / 56. 1.100
    libavformat 56. 4.100 / 56. 4.100
    libavdevice 56. 0.100 / 56. 0.100
    libavfilter 5. 0.103 / 5. 0.103
    libswscale 3. 0.100 / 3. 0.100
    libswresample 1. 1.100 / 1. 1.100
    [truehd @ 0000000003c2e6a0] major sync info header checksum error
    Last message repeated 47 times
    [matroska,webm @ 0000000003c286e0] Could not find codec parameters for stream 1 (Audio: truehd, 48000 Hz, 8 channels): unspecified sample format
    Consider increasing the value for the 'analyzeduration' and 'probesize' options
    [matroska,webm @ 0000000003c286e0] Could not find codec parameters for stream 3 (Subtitle: hdmv_pgs_subtitle): unspecified size
    Consider increasing the value for the 'analyzeduration' and 'probesize' options
    [matroska,webm @ 0000000003c286e0] Could not find codec parameters for stream 4 (Subtitle: hdmv_pgs_subtitle): unspecified size
    Consider increasing the value for the 'analyzeduration' and 'probesize' options
    [matroska,webm @ 0000000003c286e0] Could not find codec parameters for stream 5 (Subtitle: hdmv_pgs_subtitle): unspecified size
    Consider increasing the value for the 'analyzeduration' and 'probesize' options
    [matroska,webm @ 0000000003c286e0] Could not find codec parameters for stream 6 (Subtitle: hdmv_pgs_subtitle): unspecified size
    Consider increasing the value for the 'analyzeduration' and 'probesize' options
    Guessed Channel Layout for Input Stream #0.1 : 7.1
    Input #0, matroska,webm, from 'C:\Users\Home\Pictures\Videos\Movies\Movies\Mad.M ax-Fury.Road.2015.Bluray.1080p.TrueHD-7.1.Atmos.x264-Grym\Mad.Max-Fury.Road.2015.Bluray.1080p.TrueHD-7.1.Atmos.x264-Grym.mkv':
    Metadata:
    encoder : libebml v1.3.1 + libmatroska v1.4.2
    creation_time : 2015-08-16 08:33:23
    Duration: 02:00:23.39, start: 0.000000, bitrate: 20182 kb/s
    Chapter #0.0: start 0.000000, end 642.475000
    Metadata:
    title : 00:00:00.000
    Chapter #0.1: start 642.475000, end 1146.436000
    Metadata:
    title : 00:10:42.475
    Chapter #0.2: start 1146.436000, end 1812.310000
    Metadata:
    title : 00:19:06.436
    Chapter #0.3: start 1812.310000, end 2575.614000
    Metadata:
    title : 00:30:12.310
    Chapter #0.4: start 2575.614000, end 2973.345000
    Metadata:
    title : 00:42:55.614
    Chapter #0.5: start 2973.345000, end 3595.174000
    Metadata:
    title : 00:49:33.345
    Chapter #0.6: start 3595.174000, end 4382.544000
    Metadata:
    title : 00:59:55.174
    Chapter #0.7: start 4382.544000, end 4928.923000
    Metadata:
    title : 01:13:02.544
    Chapter #0.8: start 4928.923000, end 5402.730000
    Metadata:
    title : 01:22:08.923
    Chapter #0.9: start 5402.730000, end 6039.867000
    Metadata:
    title : 01:30:02.730
    Chapter #0.10: start 6039.867000, end 6552.546000
    Metadata:
    title : 01:40:39.867
    Chapter #0.11: start 6552.546000, end 6786.279000
    Metadata:
    title : 01:49:12.546
    Chapter #0.12: start 6786.279000, end 7223.132000
    Metadata:
    title : 01:53:06.279
    Chapter #0.13: start 7223.132000, end 7223.392000
    Metadata:
    title : 02:00:23.132
    Stream #0:0(eng): Video: h264 (High), yuv420p, 1920x1080, SAR 1:1 DAR 16:9, 23.98 fps, 23.98 tbr, 1k tbn, 47.95 tbc (default)
    Metadata:
    BPS : 14010975
    BPS-eng : 14010975
    DURATION : 02:00:23.383000000
    DURATION-eng : 02:00:23.383000000
    NUMBER_OF_FRAMES: 173188
    NUMBER_OF_FRAMES-eng: 173188
    NUMBER_OF_BYTES : 12650830673
    NUMBER_OF_BYTES-eng: 12650830673
    _STATISTICS_WRITING_APP: mkvmerge v8.2.0 ('World of Adventure') 32bit
    _STATISTICS_WRITING_APP-eng: mkvmerge v8.2.0 ('World of Adventure') 32bit
    _STATISTICS_WRITING_DATE_UTC: 2015-08-16 08:33:23
    _STATISTICS_WRITING_DATE_UTC-eng: 2015-08-16 08:33:23
    _STATISTICS_TAGS: BPS DURATION NUMBER_OF_FRAMES NUMBER_OF_BYTES
    _STATISTICS_TAGS-eng: BPS DURATION NUMBER_OF_FRAMES NUMBER_OF_BYTES
    Stream #0:1(eng): Audio: truehd, 48000 Hz, 8 channels (default)
    Metadata:
    BPS : 5692020
    BPS-eng : 5692020
    DURATION : 02:00:23.383000000
    DURATION-eng : 02:00:23.383000000
    NUMBER_OF_FRAMES: 8668060
    NUMBER_OF_FRAMES-eng: 8668060
    NUMBER_OF_BYTES : 5139455884
    NUMBER_OF_BYTES-eng: 5139455884
    _STATISTICS_WRITING_APP: mkvmerge v8.2.0 ('World of Adventure') 32bit
    _STATISTICS_WRITING_APP-eng: mkvmerge v8.2.0 ('World of Adventure') 32bit
    _STATISTICS_WRITING_DATE_UTC: 2015-08-16 08:33:23
    _STATISTICS_WRITING_DATE_UTC-eng: 2015-08-16 08:33:23
    _STATISTICS_TAGS: BPS DURATION NUMBER_OF_FRAMES NUMBER_OF_BYTES
    _STATISTICS_TAGS-eng: BPS DURATION NUMBER_OF_FRAMES NUMBER_OF_BYTES
    Stream #0:2(eng): Audio: ac3, 48000 Hz, 5.1(side), fltp, 384 kb/s
    Metadata:
    BPS : 384000
    BPS-eng : 384000
    DURATION : 02:00:23.392000000
    DURATION-eng : 02:00:23.392000000
    NUMBER_OF_FRAMES: 225731
    NUMBER_OF_FRAMES-eng: 225731
    NUMBER_OF_BYTES : 346722816
    NUMBER_OF_BYTES-eng: 346722816
    _STATISTICS_WRITING_APP: mkvmerge v8.2.0 ('World of Adventure') 32bit
    _STATISTICS_WRITING_APP-eng: mkvmerge v8.2.0 ('World of Adventure') 32bit
    _STATISTICS_WRITING_DATE_UTC: 2015-08-16 08:33:23
    _STATISTICS_WRITING_DATE_UTC-eng: 2015-08-16 08:33:23
    _STATISTICS_TAGS: BPS DURATION NUMBER_OF_FRAMES NUMBER_OF_BYTES
    _STATISTICS_TAGS-eng: BPS DURATION NUMBER_OF_FRAMES NUMBER_OF_BYTES
    Stream #0:3(eng): Subtitle: hdmv_pgs_subtitle
    Metadata:
    BPS : 7649
    BPS-eng : 7649
    DURATION : 02:00:00.735000000
    DURATION-eng : 02:00:00.735000000
    NUMBER_OF_FRAMES: 2334
    NUMBER_OF_FRAMES-eng: 2334
    NUMBER_OF_BYTES : 6885197
    NUMBER_OF_BYTES-eng: 6885197
    _STATISTICS_WRITING_APP: mkvmerge v8.2.0 ('World of Adventure') 32bit
    _STATISTICS_WRITING_APP-eng: mkvmerge v8.2.0 ('World of Adventure') 32bit
    _STATISTICS_WRITING_DATE_UTC: 2015-08-16 08:33:23
    _STATISTICS_WRITING_DATE_UTC-eng: 2015-08-16 08:33:23
    _STATISTICS_TAGS: BPS DURATION NUMBER_OF_FRAMES NUMBER_OF_BYTES
    _STATISTICS_TAGS-eng: BPS DURATION NUMBER_OF_FRAMES NUMBER_OF_BYTES
    Stream #0:4(fre): Subtitle: hdmv_pgs_subtitle
    Metadata:
    BPS : 5339
    BPS-eng : 5339
    DURATION : 02:00:00.610000000
    DURATION-eng : 02:00:00.610000000
    NUMBER_OF_FRAMES: 1552
    NUMBER_OF_FRAMES-eng: 1552
    NUMBER_OF_BYTES : 4806093
    NUMBER_OF_BYTES-eng: 4806093
    _STATISTICS_WRITING_APP: mkvmerge v8.2.0 ('World of Adventure') 32bit
    _STATISTICS_WRITING_APP-eng: mkvmerge v8.2.0 ('World of Adventure') 32bit
    _STATISTICS_WRITING_DATE_UTC: 2015-08-16 08:33:23
    _STATISTICS_WRITING_DATE_UTC-eng: 2015-08-16 08:33:23
    _STATISTICS_TAGS: BPS DURATION NUMBER_OF_FRAMES NUMBER_OF_BYTES
    _STATISTICS_TAGS-eng: BPS DURATION NUMBER_OF_FRAMES NUMBER_OF_BYTES
    Stream #0:5(spa): Subtitle: hdmv_pgs_subtitle
    Metadata:
    BPS : 6613
    BPS-eng : 6613
    DURATION : 02:00:00.735000000
    DURATION-eng : 02:00:00.735000000
    NUMBER_OF_FRAMES: 1740
    NUMBER_OF_FRAMES-eng: 1740
    NUMBER_OF_BYTES : 5952865
    NUMBER_OF_BYTES-eng: 5952865
    _STATISTICS_WRITING_APP: mkvmerge v8.2.0 ('World of Adventure') 32bit
    _STATISTICS_WRITING_APP-eng: mkvmerge v8.2.0 ('World of Adventure') 32bit
    _STATISTICS_WRITING_DATE_UTC: 2015-08-16 08:33:23
    _STATISTICS_WRITING_DATE_UTC-eng: 2015-08-16 08:33:23
    _STATISTICS_TAGS: BPS DURATION NUMBER_OF_FRAMES NUMBER_OF_BYTES
    _STATISTICS_TAGS-eng: BPS DURATION NUMBER_OF_FRAMES NUMBER_OF_BYTES
    Stream #0:6(por): Subtitle: hdmv_pgs_subtitle
    Metadata:
    BPS : 6375
    BPS-eng : 6375
    DURATION : 02:00:00.735000000
    DURATION-eng : 02:00:00.735000000
    NUMBER_OF_FRAMES: 1736
    NUMBER_OF_FRAMES-eng: 1736
    NUMBER_OF_BYTES : 5738749
    NUMBER_OF_BYTES-eng: 5738749
    _STATISTICS_WRITING_APP: mkvmerge v8.2.0 ('World of Adventure') 32bit
    _STATISTICS_WRITING_APP-eng: mkvmerge v8.2.0 ('World of Adventure') 32bit
    _STATISTICS_WRITING_DATE_UTC: 2015-08-16 08:33:23
    _STATISTICS_WRITING_DATE_UTC-eng: 2015-08-16 08:33:23
    _STATISTICS_TAGS: BPS DURATION NUMBER_OF_FRAMES NUMBER_OF_BYTES
    _STATISTICS_TAGS-eng: BPS DURATION NUMBER_OF_FRAMES NUMBER_OF_BYTES
    [matroska,webm @ 0000000003c286e0] sub2video: using 1920x1080 canvas
    [abuffer @ 0000000004451f00] Unable to parse option value "(null)" as sample format
    Last message repeated 1 times
    [abuffer @ 0000000004451f00] Error setting option sample_fmt to value (null).
    [graph 1 input from stream 0:1 @ 0000000003fab680] Error applying options to the filter.
    Error opening filters!

    <MEZZMO>: Child process ended with code: 109, ExitCode=1
    ffmpeg version N-66094-gbb8b752 Copyright (c) 2000-2014 the FFmpeg developers
    built on Sep 4 2014 16:23:51 with gcc 4.8.2 (GCC)
    configuration: --enable-memalign-hack --arch=x86_64 --target-os=mingw32 --cross-prefix=x86_64-w64-mingw32- --enable-static --disable-shared --enable-zlib --disable-postproc --prefix=/home/peter/ffmpeg/build/gpl64 --enable-libmp3lame --enable-libx264 --enable-gpl --extra-libs='-lx264 -lpthread' --enable-runtime-cpudetect --extra-cflags=-I/home/peter/cc32/include --extra-ldflags=-L/home/peter/cc64/lib --pkg-config=pkg-config --disable-w32threads --enable-libvpx --enable-libvorbis
    libavutil 54. 7.100 / 54. 7.100
    libavcodec 56. 1.100 / 56. 1.100
    libavformat 56. 4.100 / 56. 4.100
    libavdevice 56. 0.100 / 56. 0.100
    libavfilter 5. 0.103 / 5. 0.103
    libswscale 3. 0.100 / 3. 0.100
    libswresample 1. 1.100 / 1. 1.100
    [truehd @ 0000000003b48c40] major sync info header checksum error
    Last message repeated 47 times
    [matroska,webm @ 00000000003e9800] Could not find codec parameters for stream 1 (Audio: truehd, 48000 Hz, 8 channels): unspecified sample format
    Consider increasing the value for the 'analyzeduration' and 'probesize' options
    [matroska,webm @ 00000000003e9800] Could not find codec parameters for stream 3 (Subtitle: hdmv_pgs_subtitle): unspecified size
    Consider increasing the value for the 'analyzeduration' and 'probesize' options
    [matroska,webm @ 00000000003e9800] Could not find codec parameters for stream 4 (Subtitle: hdmv_pgs_subtitle): unspecified size
    Consider increasing the value for the 'analyzeduration' and 'probesize' options
    [matroska,webm @ 00000000003e9800] Could not find codec parameters for stream 5 (Subtitle: hdmv_pgs_subtitle): unspecified size
    Consider increasing the value for the 'analyzeduration' and 'probesize' options
    [matroska,webm @ 00000000003e9800] Could not find codec parameters for stream 6 (Subtitle: hdmv_pgs_subtitle): unspecified size
    Consider increasing the value for the 'analyzeduration' and 'probesize' options
    Guessed Channel Layout for Input Stream #0.1 : 7.1
    Input #0, matroska,webm, from 'C:\Users\Home\Pictures\Videos\Movies\Movies\Mad.M ax-Fury.Road.2015.Bluray.1080p.TrueHD-7.1.Atmos.x264-Grym\Mad.Max-Fury.Road.2015.Bluray.1080p.TrueHD-7.1.Atmos.x264-Grym.mkv':
    Metadata:
    encoder : libebml v1.3.1 + libmatroska v1.4.2
    creation_time : 2015-08-16 08:33:23
    Duration: 02:00:23.39, start: 0.000000, bitrate: 20182 kb/s
    Chapter #0.0: start 0.000000, end 642.475000
    Metadata:
    title : 00:00:00.000
    Chapter #0.1: start 642.475000, end 1146.436000
    Metadata:
    title : 00:10:42.475
    Chapter #0.2: start 1146.436000, end 1812.310000
    Metadata:
    title : 00:19:06.436
    Chapter #0.3: start 1812.310000, end 2575.614000
    Metadata:
    title : 00:30:12.310
    Chapter #0.4: start 2575.614000, end 2973.345000
    Metadata:
    title : 00:42:55.614
    Chapter #0.5: start 2973.345000, end 3595.174000
    Metadata:
    title : 00:49:33.345
    Chapter #0.6: start 3595.174000, end 4382.544000
    Metadata:
    title : 00:59:55.174
    Chapter #0.7: start 4382.544000, end 4928.923000
    Metadata:
    title : 01:13:02.544
    Chapter #0.8: start 4928.923000, end 5402.730000
    Metadata:
    title : 01:22:08.923
    Chapter #0.9: start 5402.730000, end 6039.867000
    Metadata:
    title : 01:30:02.730
    Chapter #0.10: start 6039.867000, end 6552.546000
    Metadata:
    title : 01:40:39.867
    Chapter #0.11: start 6552.546000, end 6786.279000
    Metadata:
    title : 01:49:12.546
    Chapter #0.12: start 6786.279000, end 7223.132000
    Metadata:
    title : 01:53:06.279
    Chapter #0.13: start 7223.132000, end 7223.392000
    Metadata:
    title : 02:00:23.132
    Stream #0:0(eng): Video: h264 (High), yuv420p, 1920x1080, SAR 1:1 DAR 16:9, 23.98 fps, 23.98 tbr, 1k tbn, 47.95 tbc (default)
    Metadata:
    BPS : 14010975
    BPS-eng : 14010975
    DURATION : 02:00:23.383000000
    DURATION-eng : 02:00:23.383000000
    NUMBER_OF_FRAMES: 173188
    NUMBER_OF_FRAMES-eng: 173188
    NUMBER_OF_BYTES : 12650830673
    NUMBER_OF_BYTES-eng: 12650830673
    _STATISTICS_WRITING_APP: mkvmerge v8.2.0 ('World of Adventure') 32bit
    _STATISTICS_WRITING_APP-eng: mkvmerge v8.2.0 ('World of Adventure') 32bit
    _STATISTICS_WRITING_DATE_UTC: 2015-08-16 08:33:23
    _STATISTICS_WRITING_DATE_UTC-eng: 2015-08-16 08:33:23
    _STATISTICS_TAGS: BPS DURATION NUMBER_OF_FRAMES NUMBER_OF_BYTES
    _STATISTICS_TAGS-eng: BPS DURATION NUMBER_OF_FRAMES NUMBER_OF_BYTES
    Stream #0:1(eng): Audio: truehd, 48000 Hz, 8 channels (default)
    Metadata:
    BPS : 5692020
    BPS-eng : 5692020
    DURATION : 02:00:23.383000000
    DURATION-eng : 02:00:23.383000000
    NUMBER_OF_FRAMES: 8668060
    NUMBER_OF_FRAMES-eng: 8668060
    NUMBER_OF_BYTES : 5139455884
    NUMBER_OF_BYTES-eng: 5139455884
    _STATISTICS_WRITING_APP: mkvmerge v8.2.0 ('World of Adventure') 32bit
    _STATISTICS_WRITING_APP-eng: mkvmerge v8.2.0 ('World of Adventure') 32bit
    _STATISTICS_WRITING_DATE_UTC: 2015-08-16 08:33:23
    _STATISTICS_WRITING_DATE_UTC-eng: 2015-08-16 08:33:23
    _STATISTICS_TAGS: BPS DURATION NUMBER_OF_FRAMES NUMBER_OF_BYTES
    _STATISTICS_TAGS-eng: BPS DURATION NUMBER_OF_FRAMES NUMBER_OF_BYTES
    Stream #0:2(eng): Audio: ac3, 48000 Hz, 5.1(side), fltp, 384 kb/s
    Metadata:
    BPS : 384000
    BPS-eng : 384000
    DURATION : 02:00:23.392000000
    DURATION-eng : 02:00:23.392000000
    NUMBER_OF_FRAMES: 225731
    NUMBER_OF_FRAMES-eng: 225731
    NUMBER_OF_BYTES : 346722816
    NUMBER_OF_BYTES-eng: 346722816
    _STATISTICS_WRITING_APP: mkvmerge v8.2.0 ('World of Adventure') 32bit
    _STATISTICS_WRITING_APP-eng: mkvmerge v8.2.0 ('World of Adventure') 32bit
    _STATISTICS_WRITING_DATE_UTC: 2015-08-16 08:33:23
    _STATISTICS_WRITING_DATE_UTC-eng: 2015-08-16 08:33:23
    _STATISTICS_TAGS: BPS DURATION NUMBER_OF_FRAMES NUMBER_OF_BYTES
    _STATISTICS_TAGS-eng: BPS DURATION NUMBER_OF_FRAMES NUMBER_OF_BYTES
    Stream #0:3(eng): Subtitle: hdmv_pgs_subtitle
    Metadata:
    BPS : 7649
    BPS-eng : 7649
    DURATION : 02:00:00.735000000
    DURATION-eng : 02:00:00.735000000
    NUMBER_OF_FRAMES: 2334
    NUMBER_OF_FRAMES-eng: 2334
    NUMBER_OF_BYTES : 6885197
    NUMBER_OF_BYTES-eng: 6885197
    _STATISTICS_WRITING_APP: mkvmerge v8.2.0 ('World of Adventure') 32bit
    _STATISTICS_WRITING_APP-eng: mkvmerge v8.2.0 ('World of Adventure') 32bit
    _STATISTICS_WRITING_DATE_UTC: 2015-08-16 08:33:23
    _STATISTICS_WRITING_DATE_UTC-eng: 2015-08-16 08:33:23
    _STATISTICS_TAGS: BPS DURATION NUMBER_OF_FRAMES NUMBER_OF_BYTES
    _STATISTICS_TAGS-eng: BPS DURATION NUMBER_OF_FRAMES NUMBER_OF_BYTES
    Stream #0:4(fre): Subtitle: hdmv_pgs_subtitle
    Metadata:
    BPS : 5339
    BPS-eng : 5339
    DURATION : 02:00:00.610000000
    DURATION-eng : 02:00:00.610000000
    NUMBER_OF_FRAMES: 1552
    NUMBER_OF_FRAMES-eng: 1552
    NUMBER_OF_BYTES : 4806093
    NUMBER_OF_BYTES-eng: 4806093
    _STATISTICS_WRITING_APP: mkvmerge v8.2.0 ('World of Adventure') 32bit
    _STATISTICS_WRITING_APP-eng: mkvmerge v8.2.0 ('World of Adventure') 32bit
    _STATISTICS_WRITING_DATE_UTC: 2015-08-16 08:33:23
    _STATISTICS_WRITING_DATE_UTC-eng: 2015-08-16 08:33:23
    _STATISTICS_TAGS: BPS DURATION NUMBER_OF_FRAMES NUMBER_OF_BYTES
    _STATISTICS_TAGS-eng: BPS DURATION NUMBER_OF_FRAMES NUMBER_OF_BYTES
    Stream #0:5(spa): Subtitle: hdmv_pgs_subtitle
    Metadata:
    BPS : 6613
    BPS-eng : 6613
    DURATION : 02:00:00.735000000
    DURATION-eng : 02:00:00.735000000
    NUMBER_OF_FRAMES: 1740
    NUMBER_OF_FRAMES-eng: 1740
    NUMBER_OF_BYTES : 5952865
    NUMBER_OF_BYTES-eng: 5952865
    _STATISTICS_WRITING_APP: mkvmerge v8.2.0 ('World of Adventure') 32bit
    _STATISTICS_WRITING_APP-eng: mkvmerge v8.2.0 ('World of Adventure') 32bit
    _STATISTICS_WRITING_DATE_UTC: 2015-08-16 08:33:23
    _STATISTICS_WRITING_DATE_UTC-eng: 2015-08-16 08:33:23
    _STATISTICS_TAGS: BPS DURATION NUMBER_OF_FRAMES NUMBER_OF_BYTES
    _STATISTICS_TAGS-eng: BPS DURATION NUMBER_OF_FRAMES NUMBER_OF_BYTES
    Stream #0:6(por): Subtitle: hdmv_pgs_subtitle
    Metadata:
    BPS : 6375
    BPS-eng : 6375
    DURATION : 02:00:00.735000000
    DURATION-eng : 02:00:00.735000000
    NUMBER_OF_FRAMES: 1736
    NUMBER_OF_FRAMES-eng: 1736
    NUMBER_OF_BYTES : 5738749
    NUMBER_OF_BYTES-eng: 5738749
    _STATISTICS_WRITING_APP: mkvmerge v8.2.0 ('World of Adventure') 32bit
    _STATISTICS_WRITING_APP-eng: mkvmerge v8.2.0 ('World of Adventure') 32bit
    _STATISTICS_WRITING_DATE_UTC: 2015-08-16 08:33:23
    _STATISTICS_WRITING_DATE_UTC-eng: 2015-08-16 08:33:23
    _STATISTICS_TAGS: BPS DURATION NUMBER_OF_FRAMES NUMBER_OF_BYTES
    _STATISTICS_TAGS-eng: BPS DURATION NUMBER_OF_FRAMES NUMBER_OF_BYTES
    [abuffer @ 0000000003bf4700] Unable to parse option value "(null)" as sample format
    Last message repeated 1 times
    [abuffer @ 0000000003bf4700] Error setting option sample_fmt to value (null).
    [graph 1 input from stream 0:1 @ 0000000003e2a6c0] Error applying options to the filter.
    Error opening filters!

    <MEZZMO>: Child process ended with code: 109, ExitCode=1


    I've tried pre-transcoding for my Sony Blu-Ray as well, but it also fails. Can someone help me please?

    Thanks.

  2. #2
    Join Date
    Sep 2009
    Posts
    2,052

    Default

    Hi,
    it is possibly a problem with the first audio track, can you please try the instructions at http://forum.conceiva.com/showthread...age-in-a-video to select the second audio track which is AC3 5.1 to see if this pre-transcodes without the error?

    Mezzmo Android: Install it on your tablet, smartphone, Android TV or Amazon Fire to browse and stream files from your Mezzmo library to all your devices. Full details at http://www.conceiva.com/products/mez...mo_android.asp
    Mezzmo for Kodi Add-on: Install it into Kodi to stream files from your Mezzmo library directly in Kodi. Full details at http://www.mezzmo.com/wiki/doku.php?...odi_user_guide
    Mezzmo for Roku App: Install it onto your Roku to stream files from your Mezzmo library. Full details at http://www.mezzmo.com/wiki/doku.php?...oku_user_guide
    Wiki: User Guides & Reference Manual at http://www.mezzmo.com/wiki
    Facebook: http://www.facebook.com/Mezzmo.DLNA.Server
    Twitter: https://twitter.com/conceiva_mezzmo
    Web: http://www.mezzmo.com

  3. #3
    Join Date
    Oct 2012
    Posts
    19

    Default

    Hi Peter,

    thanks for the help - that worked. Is it possible to transcode the 7.1 track though? Since that's the one I actually want to use.

    Cheers.

  4. #4
    Join Date
    Sep 2009
    Posts
    2,052

    Default

    Hi,
    ffmpeg seems unable to correctly process the 7.1 track so it is not possible to transcode the 7.1 track. The ffmpeg log shows 'major sync info header checksum error' so this could be an encoding problem.

    Mezzmo Android: Install it on your tablet, smartphone, Android TV or Amazon Fire to browse and stream files from your Mezzmo library to all your devices. Full details at http://www.conceiva.com/products/mez...mo_android.asp
    Mezzmo for Kodi Add-on: Install it into Kodi to stream files from your Mezzmo library directly in Kodi. Full details at http://www.mezzmo.com/wiki/doku.php?...odi_user_guide
    Mezzmo for Roku App: Install it onto your Roku to stream files from your Mezzmo library. Full details at http://www.mezzmo.com/wiki/doku.php?...oku_user_guide
    Wiki: User Guides & Reference Manual at http://www.mezzmo.com/wiki
    Facebook: http://www.facebook.com/Mezzmo.DLNA.Server
    Twitter: https://twitter.com/conceiva_mezzmo
    Web: http://www.mezzmo.com

  5. #5
    Join Date
    Oct 2012
    Posts
    19

    Default

    Hi Peter,

    thanks for the reply. I tried a different file last night which also had a 7.1 track but got the same errors. Is there any chance of 7.1 sound being supported in the future?

  6. #6
    Join Date
    Sep 2009
    Posts
    2,052

    Default

    Hi jyron,
    it looks like this has been fixed in ffmpeg, we will include a new version of ffmpeg with Mezzmo 5.0 and this may resolve the problem. If you would like to try the new version of ffmpeg please send an email to support [at] conceiva [dot] com.

    Mezzmo Android: Install it on your tablet, smartphone, Android TV or Amazon Fire to browse and stream files from your Mezzmo library to all your devices. Full details at http://www.conceiva.com/products/mez...mo_android.asp
    Mezzmo for Kodi Add-on: Install it into Kodi to stream files from your Mezzmo library directly in Kodi. Full details at http://www.mezzmo.com/wiki/doku.php?...odi_user_guide
    Mezzmo for Roku App: Install it onto your Roku to stream files from your Mezzmo library. Full details at http://www.mezzmo.com/wiki/doku.php?...oku_user_guide
    Wiki: User Guides & Reference Manual at http://www.mezzmo.com/wiki
    Facebook: http://www.facebook.com/Mezzmo.DLNA.Server
    Twitter: https://twitter.com/conceiva_mezzmo
    Web: http://www.mezzmo.com

  7. #7
    Join Date
    Oct 2012
    Posts
    19

    Default

    Hi Peter,

    I tried the new ffmpeg version, but now I get a slightly different error:

    C:\Program Files (x86)\Conceiva\Mezzmo\ffmpeg64\ffmpeg.exe -y -i "C:\Users\Home\Pictures\Videos\Movies\Movies\Mad.M ax-Fury.Road.2015.Bluray.1080p.TrueHD-7.1.Atmos.x264-Grym\Mad.Max-Fury.Road.2015.Bluray.1080p.TrueHD-7.1.Atmos.x264-Grym.mkv" -map 0:v:0 -map 0:a:0 -c:v:0 libx264 -level 42 -profile:v main -filter:v "yadif" -pix_fmt yuv420p -copyinkf -coder 1 -flags +loop -fflags +genpts -subq 7 -me_range 16 -g 250 -keyint_min 25 -sc_threshold 40 -b_strategy 1 -x264opts direct-pred=auto:b-pyramid=normal:mixed-refs=1:weightb=1:8x8dct=1:fast-pskip=1:crf=22:ref=2:bframes=3:aud=1:me=hex -partitions -parti8x8-parti4x4-partp8x8-partp4x4-partb8x8 -bidir_refine 1 -c:a:0 aac -ar 48000 -strict experimental -sn -threads 0 -async 0 -f matroska "C:\Users\Home\AppData\Local\Conceiva\Mezzmo\Trans codingFiles\10C92FC9-B136-47cf-9B49-3A1B78A0B32A\Video\6773-fake_mp4-libx264-aac-sn.mzt"

    ffmpeg version N-72997-gac9f052 Copyright (c) 2000-2015 the FFmpeg developers
    built with gcc 4.8.2 (GCC)
    configuration: --enable-memalign-hack --arch=x86_64 --target-os=mingw32 --cross-prefix=x86_64-w64-mingw32- --enable-static --disable-shared --enable-zlib --disable-postproc --prefix=/home/peter/ffmpeg/build/gpl64 --enable-libmp3lame --enable-libx264 --enable-gpl --extra-libs='-lx264 -lpthread' --enable-runtime-cpudetect --extra-cflags=-I/home/peter/cc64/include --extra-ldflags=-L/home/peter/cc64/lib --pkg-config=pkg-config --disable-w32threads --enable-zlib --enable-libvpx --enable-libvorbis --enable-libtheora
    libavutil 54. 27.100 / 54. 27.100
    libavcodec 56. 41.100 / 56. 41.100
    libavformat 56. 37.100 / 56. 37.100
    libavdevice 56. 4.100 / 56. 4.100
    libavfilter 5. 17.100 / 5. 17.100
    libswscale 3. 1.101 / 3. 1.101
    libswresample 1. 2.100 / 1. 2.100
    [matroska,webm @ 0000000003c3db80] Could not find codec parameters for stream 3 (Subtitle: hdmv_pgs_subtitle): unspecified size
    Consider increasing the value for the 'analyzeduration' and 'probesize' options
    [matroska,webm @ 0000000003c3db80] Could not find codec parameters for stream 4 (Subtitle: hdmv_pgs_subtitle): unspecified size
    Consider increasing the value for the 'analyzeduration' and 'probesize' options
    [matroska,webm @ 0000000003c3db80] Could not find codec parameters for stream 5 (Subtitle: hdmv_pgs_subtitle): unspecified size
    Consider increasing the value for the 'analyzeduration' and 'probesize' options
    [matroska,webm @ 0000000003c3db80] Could not find codec parameters for stream 6 (Subtitle: hdmv_pgs_subtitle): unspecified size
    Consider increasing the value for the 'analyzeduration' and 'probesize' options
    Input #0, matroska,webm, from 'C:\Users\Home\Pictures\Videos\Movies\Movies\Mad.M ax-Fury.Road.2015.Bluray.1080p.TrueHD-7.1.Atmos.x264-Grym\Mad.Max-Fury.Road.2015.Bluray.1080p.TrueHD-7.1.Atmos.x264-Grym.mkv':
    Metadata:
    encoder : libebml v1.3.1 + libmatroska v1.4.2
    creation_time : 2015-08-16 08:33:23
    Duration: 02:00:23.39, start: 0.000000, bitrate: 20182 kb/s
    Chapter #0:0: start 0.000000, end 642.475000
    Metadata:
    title : 00:00:00.000
    Chapter #0:1: start 642.475000, end 1146.436000
    Metadata:
    title : 00:10:42.475
    Chapter #0:2: start 1146.436000, end 1812.310000
    Metadata:
    title : 00:19:06.436
    Chapter #0:3: start 1812.310000, end 2575.614000
    Metadata:
    title : 00:30:12.310
    Chapter #0:4: start 2575.614000, end 2973.345000
    Metadata:
    title : 00:42:55.614
    Chapter #0:5: start 2973.345000, end 3595.174000
    Metadata:
    title : 00:49:33.345
    Chapter #0:6: start 3595.174000, end 4382.544000
    Metadata:
    title : 00:59:55.174
    Chapter #0:7: start 4382.544000, end 4928.923000
    Metadata:
    title : 01:13:02.544
    Chapter #0:8: start 4928.923000, end 5402.730000
    Metadata:
    title : 01:22:08.923
    Chapter #0:9: start 5402.730000, end 6039.867000
    Metadata:
    title : 01:30:02.730
    Chapter #0:10: start 6039.867000, end 6552.546000
    Metadata:
    title : 01:40:39.867
    Chapter #0:11: start 6552.546000, end 6786.279000
    Metadata:
    title : 01:49:12.546
    Chapter #0:12: start 6786.279000, end 7223.132000
    Metadata:
    title : 01:53:06.279
    Chapter #0:13: start 7223.132000, end 7223.392000
    Metadata:
    title : 02:00:23.132
    Stream #0:0(eng): Video: h264 (High), yuv420p, 1920x1080, SAR 1:1 DAR 16:9, 23.98 fps, 23.98 tbr, 1k tbn, 47.95 tbc (default)
    Metadata:
    BPS : 14010975
    BPS-eng : 14010975
    DURATION : 02:00:23.383000000
    DURATION-eng : 02:00:23.383000000
    NUMBER_OF_FRAMES: 173188
    NUMBER_OF_FRAMES-eng: 173188
    NUMBER_OF_BYTES : 12650830673
    NUMBER_OF_BYTES-eng: 12650830673
    _STATISTICS_WRITING_APP: mkvmerge v8.2.0 ('World of Adventure') 32bit
    _STATISTICS_WRITING_APP-eng: mkvmerge v8.2.0 ('World of Adventure') 32bit
    _STATISTICS_WRITING_DATE_UTC: 2015-08-16 08:33:23
    _STATISTICS_WRITING_DATE_UTC-eng: 2015-08-16 08:33:23
    _STATISTICS_TAGS: BPS DURATION NUMBER_OF_FRAMES NUMBER_OF_BYTES
    _STATISTICS_TAGS-eng: BPS DURATION NUMBER_OF_FRAMES NUMBER_OF_BYTES
    Stream #0:1(eng): Audio: truehd, 48000 Hz, 7.1, s32 (24 bit) (default)
    Metadata:
    BPS : 5692020
    BPS-eng : 5692020
    DURATION : 02:00:23.383000000
    DURATION-eng : 02:00:23.383000000
    NUMBER_OF_FRAMES: 8668060
    NUMBER_OF_FRAMES-eng: 8668060
    NUMBER_OF_BYTES : 5139455884
    NUMBER_OF_BYTES-eng: 5139455884
    _STATISTICS_WRITING_APP: mkvmerge v8.2.0 ('World of Adventure') 32bit
    _STATISTICS_WRITING_APP-eng: mkvmerge v8.2.0 ('World of Adventure') 32bit
    _STATISTICS_WRITING_DATE_UTC: 2015-08-16 08:33:23
    _STATISTICS_WRITING_DATE_UTC-eng: 2015-08-16 08:33:23
    _STATISTICS_TAGS: BPS DURATION NUMBER_OF_FRAMES NUMBER_OF_BYTES
    _STATISTICS_TAGS-eng: BPS DURATION NUMBER_OF_FRAMES NUMBER_OF_BYTES
    Stream #0:2(eng): Audio: ac3, 48000 Hz, 5.1(side), fltp, 384 kb/s
    Metadata:
    BPS : 384000
    BPS-eng : 384000
    DURATION : 02:00:23.392000000
    DURATION-eng : 02:00:23.392000000
    NUMBER_OF_FRAMES: 225731
    NUMBER_OF_FRAMES-eng: 225731
    NUMBER_OF_BYTES : 346722816
    NUMBER_OF_BYTES-eng: 346722816
    _STATISTICS_WRITING_APP: mkvmerge v8.2.0 ('World of Adventure') 32bit
    _STATISTICS_WRITING_APP-eng: mkvmerge v8.2.0 ('World of Adventure') 32bit
    _STATISTICS_WRITING_DATE_UTC: 2015-08-16 08:33:23
    _STATISTICS_WRITING_DATE_UTC-eng: 2015-08-16 08:33:23
    _STATISTICS_TAGS: BPS DURATION NUMBER_OF_FRAMES NUMBER_OF_BYTES
    _STATISTICS_TAGS-eng: BPS DURATION NUMBER_OF_FRAMES NUMBER_OF_BYTES
    Stream #0:3(eng): Subtitle: hdmv_pgs_subtitle
    Metadata:
    BPS : 7649
    BPS-eng : 7649
    DURATION : 02:00:00.735000000
    DURATION-eng : 02:00:00.735000000
    NUMBER_OF_FRAMES: 2334
    NUMBER_OF_FRAMES-eng: 2334
    NUMBER_OF_BYTES : 6885197
    NUMBER_OF_BYTES-eng: 6885197
    _STATISTICS_WRITING_APP: mkvmerge v8.2.0 ('World of Adventure') 32bit
    _STATISTICS_WRITING_APP-eng: mkvmerge v8.2.0 ('World of Adventure') 32bit
    _STATISTICS_WRITING_DATE_UTC: 2015-08-16 08:33:23
    _STATISTICS_WRITING_DATE_UTC-eng: 2015-08-16 08:33:23
    _STATISTICS_TAGS: BPS DURATION NUMBER_OF_FRAMES NUMBER_OF_BYTES
    _STATISTICS_TAGS-eng: BPS DURATION NUMBER_OF_FRAMES NUMBER_OF_BYTES
    Stream #0:4(fre): Subtitle: hdmv_pgs_subtitle
    Metadata:
    BPS : 5339
    BPS-eng : 5339
    DURATION : 02:00:00.610000000
    DURATION-eng : 02:00:00.610000000
    NUMBER_OF_FRAMES: 1552
    NUMBER_OF_FRAMES-eng: 1552
    NUMBER_OF_BYTES : 4806093
    NUMBER_OF_BYTES-eng: 4806093
    _STATISTICS_WRITING_APP: mkvmerge v8.2.0 ('World of Adventure') 32bit
    _STATISTICS_WRITING_APP-eng: mkvmerge v8.2.0 ('World of Adventure') 32bit
    _STATISTICS_WRITING_DATE_UTC: 2015-08-16 08:33:23
    _STATISTICS_WRITING_DATE_UTC-eng: 2015-08-16 08:33:23
    _STATISTICS_TAGS: BPS DURATION NUMBER_OF_FRAMES NUMBER_OF_BYTES
    _STATISTICS_TAGS-eng: BPS DURATION NUMBER_OF_FRAMES NUMBER_OF_BYTES
    Stream #0:5(spa): Subtitle: hdmv_pgs_subtitle
    Metadata:
    BPS : 6613
    BPS-eng : 6613
    DURATION : 02:00:00.735000000
    DURATION-eng : 02:00:00.735000000
    NUMBER_OF_FRAMES: 1740
    NUMBER_OF_FRAMES-eng: 1740
    NUMBER_OF_BYTES : 5952865
    NUMBER_OF_BYTES-eng: 5952865
    _STATISTICS_WRITING_APP: mkvmerge v8.2.0 ('World of Adventure') 32bit
    _STATISTICS_WRITING_APP-eng: mkvmerge v8.2.0 ('World of Adventure') 32bit
    _STATISTICS_WRITING_DATE_UTC: 2015-08-16 08:33:23
    _STATISTICS_WRITING_DATE_UTC-eng: 2015-08-16 08:33:23
    _STATISTICS_TAGS: BPS DURATION NUMBER_OF_FRAMES NUMBER_OF_BYTES
    _STATISTICS_TAGS-eng: BPS DURATION NUMBER_OF_FRAMES NUMBER_OF_BYTES
    Stream #0:6(por): Subtitle: hdmv_pgs_subtitle
    Metadata:
    BPS : 6375
    BPS-eng : 6375
    DURATION : 02:00:00.735000000
    DURATION-eng : 02:00:00.735000000
    NUMBER_OF_FRAMES: 1736
    NUMBER_OF_FRAMES-eng: 1736
    NUMBER_OF_BYTES : 5738749
    NUMBER_OF_BYTES-eng: 5738749
    _STATISTICS_WRITING_APP: mkvmerge v8.2.0 ('World of Adventure') 32bit
    _STATISTICS_WRITING_APP-eng: mkvmerge v8.2.0 ('World of Adventure') 32bit
    _STATISTICS_WRITING_DATE_UTC: 2015-08-16 08:33:23
    _STATISTICS_WRITING_DATE_UTC-eng: 2015-08-16 08:33:23
    _STATISTICS_TAGS: BPS DURATION NUMBER_OF_FRAMES NUMBER_OF_BYTES
    _STATISTICS_TAGS-eng: BPS DURATION NUMBER_OF_FRAMES NUMBER_OF_BYTES
    [aac @ 000000000432e4e0] Unsupported number of channels: 8
    Output #0, matroska, to 'C:\Users\Home\AppData\Local\Conceiva\Mezzmo\Trans codingFiles\10C92FC9-B136-47cf-9B49-3A1B78A0B32A\Video\6773-fake_mp4-libx264-aac-sn.mzt':
    Metadata:
    encoder : libebml v1.3.1 + libmatroska v1.4.2
    Chapter #0:0: start 0.000000, end 642.475000
    Metadata:
    title : 00:00:00.000
    Chapter #0:1: start 642.475000, end 1146.436000
    Metadata:
    title : 00:10:42.475
    Chapter #0:2: start 1146.436000, end 1812.310000
    Metadata:
    title : 00:19:06.436
    Chapter #0:3: start 1812.310000, end 2575.614000
    Metadata:
    title : 00:30:12.310
    Chapter #0:4: start 2575.614000, end 2973.345000
    Metadata:
    title : 00:42:55.614
    Chapter #0:5: start 2973.345000, end 3595.174000
    Metadata:
    title : 00:49:33.345
    Chapter #0:6: start 3595.174000, end 4382.544000
    Metadata:
    title : 00:59:55.174
    Chapter #0:7: start 4382.544000, end 4928.923000
    Metadata:
    title : 01:13:02.544
    Chapter #0:8: start 4928.923000, end 5402.730000
    Metadata:
    title : 01:22:08.923
    Chapter #0:9: start 5402.730000, end 6039.867000
    Metadata:
    title : 01:30:02.730
    Chapter #0:10: start 6039.867000, end 6552.546000
    Metadata:
    title : 01:40:39.867
    Chapter #0:11: start 6552.546000, end 6786.279000
    Metadata:
    title : 01:49:12.546
    Chapter #0:12: start 6786.279000, end 7223.132000
    Metadata:
    title : 01:53:06.279
    Chapter #0:13: start 7223.132000, end 7223.392000
    Metadata:
    title : 02:00:23.132
    Stream #0:0(eng): Video: h264, yuv420p, 1920x1080 [SAR 1:1 DAR 16:9], q=2-31, 23.98 fps, 23.98 tbr, 1k tbn, 1k tbc (default)
    Metadata:
    BPS : 14010975
    BPS-eng : 14010975
    DURATION : 02:00:23.383000000
    DURATION-eng : 02:00:23.383000000
    NUMBER_OF_FRAMES: 173188
    NUMBER_OF_FRAMES-eng: 173188
    NUMBER_OF_BYTES : 12650830673
    NUMBER_OF_BYTES-eng: 12650830673
    _STATISTICS_WRITING_APP: mkvmerge v8.2.0 ('World of Adventure') 32bit
    _STATISTICS_WRITING_APP-eng: mkvmerge v8.2.0 ('World of Adventure') 32bit
    _STATISTICS_WRITING_DATE_UTC: 2015-08-16 08:33:23
    _STATISTICS_WRITING_DATE_UTC-eng: 2015-08-16 08:33:23
    _STATISTICS_TAGS: BPS DURATION NUMBER_OF_FRAMES NUMBER_OF_BYTES
    _STATISTICS_TAGS-eng: BPS DURATION NUMBER_OF_FRAMES NUMBER_OF_BYTES
    Stream #0:1(eng): Audio: aac, 0 channels, 128 kb/s (default)
    Metadata:
    BPS : 5692020
    BPS-eng : 5692020
    DURATION : 02:00:23.383000000
    DURATION-eng : 02:00:23.383000000
    NUMBER_OF_FRAMES: 8668060
    NUMBER_OF_FRAMES-eng: 8668060
    NUMBER_OF_BYTES : 5139455884
    NUMBER_OF_BYTES-eng: 5139455884
    _STATISTICS_WRITING_APP: mkvmerge v8.2.0 ('World of Adventure') 32bit
    _STATISTICS_WRITING_APP-eng: mkvmerge v8.2.0 ('World of Adventure') 32bit
    _STATISTICS_WRITING_DATE_UTC: 2015-08-16 08:33:23
    _STATISTICS_WRITING_DATE_UTC-eng: 2015-08-16 08:33:23
    _STATISTICS_TAGS: BPS DURATION NUMBER_OF_FRAMES NUMBER_OF_BYTES
    _STATISTICS_TAGS-eng: BPS DURATION NUMBER_OF_FRAMES NUMBER_OF_BYTES
    encoder : Lavc56.41.100 aac
    Stream mapping:
    Stream #0:0 -> #0:0 (copy)
    Stream #0:1 -> #0:1 (truehd (native) -> aac (native))
    Error while opening encoder for output stream #0:1 - maybe incorrect parameters such as bit_rate, rate, width or height

    <MEZZMO>: Child process ended with code: 109, ExitCode=1
    ffmpeg version N-72997-gac9f052 Copyright (c) 2000-2015 the FFmpeg developers
    built with gcc 4.8.2 (GCC)
    configuration: --enable-memalign-hack --arch=x86_64 --target-os=mingw32 --cross-prefix=x86_64-w64-mingw32- --enable-static --disable-shared --enable-zlib --disable-postproc --prefix=/home/peter/ffmpeg/build/gpl64 --enable-libmp3lame --enable-libx264 --enable-gpl --extra-libs='-lx264 -lpthread' --enable-runtime-cpudetect --extra-cflags=-I/home/peter/cc64/include --extra-ldflags=-L/home/peter/cc64/lib --pkg-config=pkg-config --disable-w32threads --enable-zlib --enable-libvpx --enable-libvorbis --enable-libtheora
    libavutil 54. 27.100 / 54. 27.100
    libavcodec 56. 41.100 / 56. 41.100
    libavformat 56. 37.100 / 56. 37.100
    libavdevice 56. 4.100 / 56. 4.100
    libavfilter 5. 17.100 / 5. 17.100
    libswscale 3. 1.101 / 3. 1.101
    libswresample 1. 2.100 / 1. 2.100
    [matroska,webm @ 000000000244db00] Could not find codec parameters for stream 3 (Subtitle: hdmv_pgs_subtitle): unspecified size
    Consider increasing the value for the 'analyzeduration' and 'probesize' options
    [matroska,webm @ 000000000244db00] Could not find codec parameters for stream 4 (Subtitle: hdmv_pgs_subtitle): unspecified size
    Consider increasing the value for the 'analyzeduration' and 'probesize' options
    [matroska,webm @ 000000000244db00] Could not find codec parameters for stream 5 (Subtitle: hdmv_pgs_subtitle): unspecified size
    Consider increasing the value for the 'analyzeduration' and 'probesize' options
    [matroska,webm @ 000000000244db00] Could not find codec parameters for stream 6 (Subtitle: hdmv_pgs_subtitle): unspecified size
    Consider increasing the value for the 'analyzeduration' and 'probesize' options
    Input #0, matroska,webm, from 'C:\Users\Home\Pictures\Videos\Movies\Movies\Mad.M ax-Fury.Road.2015.Bluray.1080p.TrueHD-7.1.Atmos.x264-Grym\Mad.Max-Fury.Road.2015.Bluray.1080p.TrueHD-7.1.Atmos.x264-Grym.mkv':
    Metadata:
    encoder : libebml v1.3.1 + libmatroska v1.4.2
    creation_time : 2015-08-16 08:33:23
    Duration: 02:00:23.39, start: 0.000000, bitrate: 20182 kb/s
    Chapter #0:0: start 0.000000, end 642.475000
    Metadata:
    title : 00:00:00.000
    Chapter #0:1: start 642.475000, end 1146.436000
    Metadata:
    title : 00:10:42.475
    Chapter #0:2: start 1146.436000, end 1812.310000
    Metadata:
    title : 00:19:06.436
    Chapter #0:3: start 1812.310000, end 2575.614000
    Metadata:
    title : 00:30:12.310
    Chapter #0:4: start 2575.614000, end 2973.345000
    Metadata:
    title : 00:42:55.614
    Chapter #0:5: start 2973.345000, end 3595.174000
    Metadata:
    title : 00:49:33.345
    Chapter #0:6: start 3595.174000, end 4382.544000
    Metadata:
    title : 00:59:55.174
    Chapter #0:7: start 4382.544000, end 4928.923000
    Metadata:
    title : 01:13:02.544
    Chapter #0:8: start 4928.923000, end 5402.730000
    Metadata:
    title : 01:22:08.923
    Chapter #0:9: start 5402.730000, end 6039.867000
    Metadata:
    title : 01:30:02.730
    Chapter #0:10: start 6039.867000, end 6552.546000
    Metadata:
    title : 01:40:39.867
    Chapter #0:11: start 6552.546000, end 6786.279000
    Metadata:
    title : 01:49:12.546
    Chapter #0:12: start 6786.279000, end 7223.132000
    Metadata:
    title : 01:53:06.279
    Chapter #0:13: start 7223.132000, end 7223.392000
    Metadata:
    title : 02:00:23.132
    Stream #0:0(eng): Video: h264 (High), yuv420p, 1920x1080, SAR 1:1 DAR 16:9, 23.98 fps, 23.98 tbr, 1k tbn, 47.95 tbc (default)
    Metadata:
    BPS : 14010975
    BPS-eng : 14010975
    DURATION : 02:00:23.383000000
    DURATION-eng : 02:00:23.383000000
    NUMBER_OF_FRAMES: 173188
    NUMBER_OF_FRAMES-eng: 173188
    NUMBER_OF_BYTES : 12650830673
    NUMBER_OF_BYTES-eng: 12650830673
    _STATISTICS_WRITING_APP: mkvmerge v8.2.0 ('World of Adventure') 32bit
    _STATISTICS_WRITING_APP-eng: mkvmerge v8.2.0 ('World of Adventure') 32bit
    _STATISTICS_WRITING_DATE_UTC: 2015-08-16 08:33:23
    _STATISTICS_WRITING_DATE_UTC-eng: 2015-08-16 08:33:23
    _STATISTICS_TAGS: BPS DURATION NUMBER_OF_FRAMES NUMBER_OF_BYTES
    _STATISTICS_TAGS-eng: BPS DURATION NUMBER_OF_FRAMES NUMBER_OF_BYTES
    Stream #0:1(eng): Audio: truehd, 48000 Hz, 7.1, s32 (24 bit) (default)
    Metadata:
    BPS : 5692020
    BPS-eng : 5692020
    DURATION : 02:00:23.383000000
    DURATION-eng : 02:00:23.383000000
    NUMBER_OF_FRAMES: 8668060
    NUMBER_OF_FRAMES-eng: 8668060
    NUMBER_OF_BYTES : 5139455884
    NUMBER_OF_BYTES-eng: 5139455884
    _STATISTICS_WRITING_APP: mkvmerge v8.2.0 ('World of Adventure') 32bit
    _STATISTICS_WRITING_APP-eng: mkvmerge v8.2.0 ('World of Adventure') 32bit
    _STATISTICS_WRITING_DATE_UTC: 2015-08-16 08:33:23
    _STATISTICS_WRITING_DATE_UTC-eng: 2015-08-16 08:33:23
    _STATISTICS_TAGS: BPS DURATION NUMBER_OF_FRAMES NUMBER_OF_BYTES
    _STATISTICS_TAGS-eng: BPS DURATION NUMBER_OF_FRAMES NUMBER_OF_BYTES
    Stream #0:2(eng): Audio: ac3, 48000 Hz, 5.1(side), fltp, 384 kb/s
    Metadata:
    BPS : 384000
    BPS-eng : 384000
    DURATION : 02:00:23.392000000
    DURATION-eng : 02:00:23.392000000
    NUMBER_OF_FRAMES: 225731
    NUMBER_OF_FRAMES-eng: 225731
    NUMBER_OF_BYTES : 346722816
    NUMBER_OF_BYTES-eng: 346722816
    _STATISTICS_WRITING_APP: mkvmerge v8.2.0 ('World of Adventure') 32bit
    _STATISTICS_WRITING_APP-eng: mkvmerge v8.2.0 ('World of Adventure') 32bit
    _STATISTICS_WRITING_DATE_UTC: 2015-08-16 08:33:23
    _STATISTICS_WRITING_DATE_UTC-eng: 2015-08-16 08:33:23
    _STATISTICS_TAGS: BPS DURATION NUMBER_OF_FRAMES NUMBER_OF_BYTES
    _STATISTICS_TAGS-eng: BPS DURATION NUMBER_OF_FRAMES NUMBER_OF_BYTES
    Stream #0:3(eng): Subtitle: hdmv_pgs_subtitle
    Metadata:
    BPS : 7649
    BPS-eng : 7649
    DURATION : 02:00:00.735000000
    DURATION-eng : 02:00:00.735000000
    NUMBER_OF_FRAMES: 2334
    NUMBER_OF_FRAMES-eng: 2334
    NUMBER_OF_BYTES : 6885197
    NUMBER_OF_BYTES-eng: 6885197
    _STATISTICS_WRITING_APP: mkvmerge v8.2.0 ('World of Adventure') 32bit
    _STATISTICS_WRITING_APP-eng: mkvmerge v8.2.0 ('World of Adventure') 32bit
    _STATISTICS_WRITING_DATE_UTC: 2015-08-16 08:33:23
    _STATISTICS_WRITING_DATE_UTC-eng: 2015-08-16 08:33:23
    _STATISTICS_TAGS: BPS DURATION NUMBER_OF_FRAMES NUMBER_OF_BYTES
    _STATISTICS_TAGS-eng: BPS DURATION NUMBER_OF_FRAMES NUMBER_OF_BYTES
    Stream #0:4(fre): Subtitle: hdmv_pgs_subtitle
    Metadata:
    BPS : 5339
    BPS-eng : 5339
    DURATION : 02:00:00.610000000
    DURATION-eng : 02:00:00.610000000
    NUMBER_OF_FRAMES: 1552
    NUMBER_OF_FRAMES-eng: 1552
    NUMBER_OF_BYTES : 4806093
    NUMBER_OF_BYTES-eng: 4806093
    _STATISTICS_WRITING_APP: mkvmerge v8.2.0 ('World of Adventure') 32bit
    _STATISTICS_WRITING_APP-eng: mkvmerge v8.2.0 ('World of Adventure') 32bit
    _STATISTICS_WRITING_DATE_UTC: 2015-08-16 08:33:23
    _STATISTICS_WRITING_DATE_UTC-eng: 2015-08-16 08:33:23
    _STATISTICS_TAGS: BPS DURATION NUMBER_OF_FRAMES NUMBER_OF_BYTES
    _STATISTICS_TAGS-eng: BPS DURATION NUMBER_OF_FRAMES NUMBER_OF_BYTES
    Stream #0:5(spa): Subtitle: hdmv_pgs_subtitle
    Metadata:
    BPS : 6613
    BPS-eng : 6613
    DURATION : 02:00:00.735000000
    DURATION-eng : 02:00:00.735000000
    NUMBER_OF_FRAMES: 1740
    NUMBER_OF_FRAMES-eng: 1740
    NUMBER_OF_BYTES : 5952865
    NUMBER_OF_BYTES-eng: 5952865
    _STATISTICS_WRITING_APP: mkvmerge v8.2.0 ('World of Adventure') 32bit
    _STATISTICS_WRITING_APP-eng: mkvmerge v8.2.0 ('World of Adventure') 32bit
    _STATISTICS_WRITING_DATE_UTC: 2015-08-16 08:33:23
    _STATISTICS_WRITING_DATE_UTC-eng: 2015-08-16 08:33:23
    _STATISTICS_TAGS: BPS DURATION NUMBER_OF_FRAMES NUMBER_OF_BYTES
    _STATISTICS_TAGS-eng: BPS DURATION NUMBER_OF_FRAMES NUMBER_OF_BYTES
    Stream #0:6(por): Subtitle: hdmv_pgs_subtitle
    Metadata:
    BPS : 6375
    BPS-eng : 6375
    DURATION : 02:00:00.735000000
    DURATION-eng : 02:00:00.735000000
    NUMBER_OF_FRAMES: 1736
    NUMBER_OF_FRAMES-eng: 1736
    NUMBER_OF_BYTES : 5738749
    NUMBER_OF_BYTES-eng: 5738749
    _STATISTICS_WRITING_APP: mkvmerge v8.2.0 ('World of Adventure') 32bit
    _STATISTICS_WRITING_APP-eng: mkvmerge v8.2.0 ('World of Adventure') 32bit
    _STATISTICS_WRITING_DATE_UTC: 2015-08-16 08:33:23
    _STATISTICS_WRITING_DATE_UTC-eng: 2015-08-16 08:33:23
    _STATISTICS_TAGS: BPS DURATION NUMBER_OF_FRAMES NUMBER_OF_BYTES
    _STATISTICS_TAGS-eng: BPS DURATION NUMBER_OF_FRAMES NUMBER_OF_BYTES
    [libx264 @ 00000000024e6f00] using SAR=1/1
    [libx264 @ 00000000024e6f00] using cpu capabilities: MMX2 SSE2Fast SSSE3 SSE4.2
    [libx264 @ 00000000024e6f00] profile High, level 4.2
    [libx264 @ 00000000024e6f00] 264 - core 146 r2538 121396c - H.264/MPEG-4 AVC codec - Copyleft 2003-2015 - http://www.videolan.org/x264.html - options: cabac=1 ref=2 deblock=1:0:0 analyse=0x3:0x133 me=hex subme=7 psy=1 psy_rd=1.00:0.00 mixed_ref=1 me_range=16 chroma_me=1 trellis=1 8x8dct=1 cqm=0 deadzone=21,11 fast_pskip=1 chroma_qp_offset=-2 threads=12 lookahead_threads=2 sliced_threads=0 nr=0 decimate=1 interlaced=0 bluray_compat=0 constrained_intra=0 bframes=3 b_pyramid=2 b_adapt=1 b_bias=0 direct=3 weightb=1 open_gop=0 weightp=2 keyint=250 keyint_min=25 scenecut=40 intra_refresh=0 rc_lookahead=40 rc=crf mbtree=1 crf=22.0 qcomp=0.60 qpmin=0 qpmax=69 qpstep=4 ip_ratio=1.40 aq=1:1.00
    [aac @ 00000000024e5820] Unsupported number of channels: 8
    Output #0, matroska, to 'C:\Users\Home\AppData\Local\Conceiva\Mezzmo\Trans codingFiles\10C92FC9-B136-47cf-9B49-3A1B78A0B32A\Video\6773-fake_mp4-libx264-aac-sn.mzt':
    Metadata:
    encoder : libebml v1.3.1 + libmatroska v1.4.2
    Chapter #0:0: start 0.000000, end 642.475000
    Metadata:
    title : 00:00:00.000
    Chapter #0:1: start 642.475000, end 1146.436000
    Metadata:
    title : 00:10:42.475
    Chapter #0:2: start 1146.436000, end 1812.310000
    Metadata:
    title : 00:19:06.436
    Chapter #0:3: start 1812.310000, end 2575.614000
    Metadata:
    title : 00:30:12.310
    Chapter #0:4: start 2575.614000, end 2973.345000
    Metadata:
    title : 00:42:55.614
    Chapter #0:5: start 2973.345000, end 3595.174000
    Metadata:
    title : 00:49:33.345
    Chapter #0:6: start 3595.174000, end 4382.544000
    Metadata:
    title : 00:59:55.174
    Chapter #0:7: start 4382.544000, end 4928.923000
    Metadata:
    title : 01:13:02.544
    Chapter #0:8: start 4928.923000, end 5402.730000
    Metadata:
    title : 01:22:08.923
    Chapter #0:9: start 5402.730000, end 6039.867000
    Metadata:
    title : 01:30:02.730
    Chapter #0:10: start 6039.867000, end 6552.546000
    Metadata:
    title : 01:40:39.867
    Chapter #0:11: start 6552.546000, end 6786.279000
    Metadata:
    title : 01:49:12.546
    Chapter #0:12: start 6786.279000, end 7223.132000
    Metadata:
    title : 01:53:06.279
    Chapter #0:13: start 7223.132000, end 7223.392000
    Metadata:
    title : 02:00:23.132
    Stream #0:0(eng): Video: h264 (libx264), yuv420p, 1920x1080 [SAR 1:1 DAR 16:9], q=-1--1, 23.98 fps, 23.98 tbn, 23.98 tbc (default)
    Metadata:
    BPS : 14010975
    BPS-eng : 14010975
    DURATION : 02:00:23.383000000
    DURATION-eng : 02:00:23.383000000
    NUMBER_OF_FRAMES: 173188
    NUMBER_OF_FRAMES-eng: 173188
    NUMBER_OF_BYTES : 12650830673
    NUMBER_OF_BYTES-eng: 12650830673
    _STATISTICS_WRITING_APP: mkvmerge v8.2.0 ('World of Adventure') 32bit
    _STATISTICS_WRITING_APP-eng: mkvmerge v8.2.0 ('World of Adventure') 32bit
    _STATISTICS_WRITING_DATE_UTC: 2015-08-16 08:33:23
    _STATISTICS_WRITING_DATE_UTC-eng: 2015-08-16 08:33:23
    _STATISTICS_TAGS: BPS DURATION NUMBER_OF_FRAMES NUMBER_OF_BYTES
    _STATISTICS_TAGS-eng: BPS DURATION NUMBER_OF_FRAMES NUMBER_OF_BYTES
    encoder : Lavc56.41.100 libx264
    Stream #0:1(eng): Audio: aac, 0 channels, 128 kb/s (default)
    Metadata:
    BPS : 5692020
    BPS-eng : 5692020
    DURATION : 02:00:23.383000000
    DURATION-eng : 02:00:23.383000000
    NUMBER_OF_FRAMES: 8668060
    NUMBER_OF_FRAMES-eng: 8668060
    NUMBER_OF_BYTES : 5139455884
    NUMBER_OF_BYTES-eng: 5139455884
    _STATISTICS_WRITING_APP: mkvmerge v8.2.0 ('World of Adventure') 32bit
    _STATISTICS_WRITING_APP-eng: mkvmerge v8.2.0 ('World of Adventure') 32bit
    _STATISTICS_WRITING_DATE_UTC: 2015-08-16 08:33:23
    _STATISTICS_WRITING_DATE_UTC-eng: 2015-08-16 08:33:23
    _STATISTICS_TAGS: BPS DURATION NUMBER_OF_FRAMES NUMBER_OF_BYTES
    _STATISTICS_TAGS-eng: BPS DURATION NUMBER_OF_FRAMES NUMBER_OF_BYTES
    encoder : Lavc56.41.100 aac
    Stream mapping:
    Stream #0:0 -> #0:0 (h264 (native) -> h264 (libx264))
    Stream #0:1 -> #0:1 (truehd (native) -> aac (native))
    Error while opening encoder for output stream #0:1 - maybe incorrect parameters such as bit_rate, rate, width or height

    <MEZZMO>: Child process ended with code: 109, ExitCode=1

    Any ideas what might be going wrong?

  8. #8
    Join Date
    Sep 2009
    Posts
    2,052

    Default

    Hi,
    the error is 'Unsupported number of channels: 8'. So ffmpeg has been able to decode the audio header correctly and has gotten to the encoding step but is unable to encode 8 channels for aac audio. You can try pre-transcoding to webm with vp8 video and vorbis for the audio to see if it will encode 8 channels. We can put a limit on the channels in the device profile so that only 6 channels are encoded for aac and this should allow it to encode the audio.

    Mezzmo Android: Install it on your tablet, smartphone, Android TV or Amazon Fire to browse and stream files from your Mezzmo library to all your devices. Full details at http://www.conceiva.com/products/mez...mo_android.asp
    Mezzmo for Kodi Add-on: Install it into Kodi to stream files from your Mezzmo library directly in Kodi. Full details at http://www.mezzmo.com/wiki/doku.php?...odi_user_guide
    Mezzmo for Roku App: Install it onto your Roku to stream files from your Mezzmo library. Full details at http://www.mezzmo.com/wiki/doku.php?...oku_user_guide
    Wiki: User Guides & Reference Manual at http://www.mezzmo.com/wiki
    Facebook: http://www.facebook.com/Mezzmo.DLNA.Server
    Twitter: https://twitter.com/conceiva_mezzmo
    Web: http://www.mezzmo.com

Similar Threads

  1. Help with getting Surround Sound
    By Boogity in forum Mezzmo Questions and Support
    Replies: 13
    Last Post: 05-10-2012, 12:23 PM
  2. Sound Sync
    By dehalley in forum Mezzmo Questions and Support
    Replies: 5
    Last Post: 03-13-2012, 09:09 AM
  3. Problem capturing video from webpage - no sound card detected!!!!
    By abacrotto in forum DownloadStudio Questions and Support
    Replies: 1
    Last Post: 02-03-2011, 08:08 AM
  4. No sound
    By Dré in forum Mezzmo Questions and Support
    Replies: 5
    Last Post: 01-24-2011, 09:09 AM
  5. AVI files with AC3 sound problem
    By MetZ in forum Mezzmo Questions and Support
    Replies: 13
    Last Post: 02-01-2008, 08:36 AM

Tags for this Thread

Bookmarks

Posting Permissions

  • You may not post new threads
  • You may not post replies
  • You may not post attachments
  • You may not edit your posts
  •